<?xml version="1.0" standalone="no"?>
<!DOCTYPE svg PUBLIC "-//W3C//DTD SVG 1.1//EN" "http://www.w3.org/Graphics/SVG/1.1/DTD/svg11.dtd" >
<svg>
<metadata>
Created by FontForge 20090914 at Fri Feb 24 16:37:18 2012
 By root
Schnaubelt &#194;&#169; (Neale Davidson). 2011. All Rights Reserved
</metadata>
<defs>
<font id="Schnaubelt" horiz-adv-x="1150" >
  <font-face 
    font-family="Schnaubelt"
    font-weight="400"
    font-stretch="normal"
    units-per-em="2048"
    panose-1="2 0 5 0 0 0 0 0 0 0"
    ascent="1638"
    descent="-410"
    x-height="1080"
    cap-height="1350"
    bbox="-202 -418 1600 1751"
    underline-thickness="150"
    underline-position="-142"
    unicode-range="U+0020-U+F002"
  />
<missing-glyph horiz-adv-x="1024" 
d="M100 0v1434h824v-1434h-824zM150 50h724v1334h-724v-1334zM325 1148q31 28 58 43q53 30 112 30q92 0 148 -47.5t56 -127.5q0 -49 -23 -98.5t-87 -129.5q-63 -80 -99 -132t-36 -99q0 -38 24 -133h-32q-35 97 -35 148q0 76 81.5 218t81.5 217q0 57 -33 90t-91 33
q-38 0 -69 -17q-26 -15 -56 -40v45zM389 334l57 58q11 10 20 10q10 0 22 -11l56 -60q9 -11 9 -20q0 -11 -10 -22l-56 -62q-14 -14 -21 -14q-11 0 -20 10l-61 71q-7 9 -7 18q0 10 11 22z" />
    <glyph glyph-name=".notdef" horiz-adv-x="1024" 
d="M100 0v1434h824v-1434h-824zM150 50h724v1334h-724v-1334zM325 1148q31 28 58 43q53 30 112 30q92 0 148 -47.5t56 -127.5q0 -49 -23 -98.5t-87 -129.5q-63 -80 -99 -132t-36 -99q0 -38 24 -133h-32q-35 97 -35 148q0 76 81.5 218t81.5 217q0 57 -33 90t-91 33
q-38 0 -69 -17q-26 -15 -56 -40v45zM389 334l57 58q11 10 20 10q10 0 22 -11l56 -60q9 -11 9 -20q0 -11 -10 -22l-56 -62q-14 -14 -21 -14q-11 0 -20 10l-61 71q-7 9 -7 18q0 10 11 22z" />
    <glyph glyph-name=".null" horiz-adv-x="0" 
 />
    <glyph glyph-name="nonmarkingreturn" horiz-adv-x="508" 
 />
    <glyph glyph-name="space" unicode=" " horiz-adv-x="1002" 
 />
    <glyph glyph-name="space" unicode="&#xa0;" horiz-adv-x="1002" 
 />
    <glyph glyph-name="exclam" unicode="!" horiz-adv-x="452" 
d="M102 250h50q100 0 100 -100l-2 -50q0 -100 -100 -100h-50q-100 0 -100 100l2 50q0 100 100 100zM102 1350h50q100 0 100 -77v-773q0 -100 -100 -100h-50q-100 0 -100 100v773q0 77 100 77z" />
    <glyph glyph-name="quotedbl" unicode="&#x22;" horiz-adv-x="850" 
d="M100 1350h50q100 0 100 -100v-200q0 -100 -100 -100h-50v100q0 100 -100 100v100q0 100 100 100zM500 1350h50q100 0 100 -100v-200q0 -100 -100 -100h-50v100q0 100 -100 100v100q0 100 100 100z" />
    <glyph glyph-name="numbersign" unicode="#" horiz-adv-x="1250" 
d="M0 550v50q0 100 100 100h100v150h-100q-100 0 -100 100v50q0 100 100 100h100v100q0 100 100 100h50q100 0 100 -100v-100h150v100q0 100 100 100h50q100 0 100 -100v-100h100q100 0 100 -100v-50q0 -100 -100 -100h-100v-150h100q100 0 100 -100v-50q0 -100 -100 -100
h-100v-100q0 -100 -100 -100h-50q-100 0 -100 100v100h-150v-100q0 -100 -100 -100h-50q-100 0 -100 100v100h-100q-100 0 -100 100zM600 850h-150v-150h150v150z" />
    <glyph glyph-name="dollar" unicode="$" horiz-adv-x="1250" 
d="M350 900q0 -100 350 -150t350 -250v-100q0 -250 -400 -300q0 -100 -100 -100h-50q-100 0 -100 100q-400 0 -400 350q0 100 100 100h50q100 0 100 -100t250 -100h50q250 0 250 100q6 12 6 23q0 83 -331 127q-375 50 -375 250v100q0 300 300 300q0 100 100 100h50
q100 0 100 -100q300 0 300 -300q0 -100 -100 -100h-50q-100 0 -100 100q0 50 -150 50h-50q-150 0 -150 -100z" />
    <glyph glyph-name="percent" unicode="%" horiz-adv-x="1250" 
d="M700 1100q50 100 150 100h50q50 0 50 -100l-600 -850q-50 -100 -150 -100h-50q-50 0 -50 100zM200 1050q0 -50 50 -50t50 50t-50 50t-50 -50zM250 1350q250 0 250 -300t-250 -300t-250 300t250 300zM750 300q0 -50 50 -50t50 50t-50 50t-50 -50zM800 600q250 0 250 -300
t-250 -300t-250 300t250 300z" />
    <glyph glyph-name="ampersand" unicode="&#x26;" horiz-adv-x="1391" 
d="M305 0q-300 0 -300 300v159q0 175 200 241q-100 50 -100 200v150q50 300 300 300h100q250 0 300 -300v-150q0 -200 -137 -214l-73 -27l210 -209l63 100q37 100 87 100l100 -50q26 -26 26 -63q0 -34 -22 -78l-104 -159l154 -141q40 -38 40 -77q0 -41 -44 -82h-100
q-50 0 -100 50l-69 73q-63 -123 -183 -123h-348zM255 350q0 -100 100 -100h248q52 0 52 50l-250 250q-150 -36 -150 -136v-64zM455 800q100 0 100 100v100q0 100 -100 100t-100 -100v-100q0 -100 100 -100z" />
    <glyph glyph-name="quotesingle" unicode="'" horiz-adv-x="450" 
d="M100 1350h50q100 0 100 -100v-200q0 -100 -100 -100h-50v100q0 100 -100 100v100q0 100 100 100z" />
    <glyph glyph-name="parenleft" unicode="(" horiz-adv-x="850" 
d="M500 1600h50q100 0 100 -100v-50q0 -100 -100 -100h-50q-250 0 -250 -650v-100q0 -600 250 -600h50q100 0 100 -100v-50q0 -100 -100 -100h-50q-500 0 -500 800v200q0 850 500 850z" />
    <glyph glyph-name="parenright" unicode=")" horiz-adv-x="850" 
d="M650 750v-200q0 -800 -500 -800h-50q-100 0 -100 100v50q0 100 100 100h50q250 0 250 600v100q0 650 -250 650h-50q-100 0 -100 100v50q0 100 100 100h50q500 0 500 -850z" />
    <glyph glyph-name="asterisk" unicode="*" horiz-adv-x="1050" 
d="M0 1050v50q0 100 100 100l200 -50v100q0 100 100 100h50q100 0 100 -100v-100l200 50q100 0 100 -100v-50q0 -50 -100 -100l-150 -50l150 -200q17 -33 17 -61q0 -56 -67 -89q-100 0 -200 150l-50 50h-50l-50 -50q-100 -150 -200 -150q-67 33 -67 89q0 28 17 61l150 200
l-150 50q-100 50 -100 100z" />
    <glyph glyph-name="plus" unicode="+" horiz-adv-x="1050" 
d="M0 650v50q0 100 100 100h200v200q0 100 100 100h50q100 0 100 -100v-200h200q100 0 100 -100v-50q0 -100 -100 -100h-200v-200q0 -100 -100 -100h-50q-100 0 -100 100v200h-200q-100 0 -100 100z" />
    <glyph glyph-name="comma" unicode="," horiz-adv-x="450" 
d="M100 250h50q100 0 100 -100v-200q0 -100 -100 -100h-50v100q0 100 -100 100v100q0 100 100 100z" />
    <glyph glyph-name="hyphen" unicode="-" horiz-adv-x="1050" 
d="M0 650v50q0 100 100 100h650q100 0 100 -100v-50q0 -100 -100 -100h-650q-100 0 -100 100z" />
    <glyph glyph-name="hyphen" unicode="&#xad;" horiz-adv-x="1050" 
d="M0 650v50q0 100 100 100h650q100 0 100 -100v-50q0 -100 -100 -100h-650q-100 0 -100 100z" />
    <glyph glyph-name="period" unicode="." horiz-adv-x="452" 
d="M102 250h50q100 0 100 -100l-2 -50q0 -100 -100 -100h-50q-100 0 -100 100l2 50q0 100 100 100z" />
    <glyph glyph-name="slash" unicode="/" horiz-adv-x="1050" 
d="M600 1100q50 100 150 100h50q50 0 50 -100l-600 -850q-50 -100 -150 -100h-50q-50 0 -50 100z" />
    <glyph glyph-name="zero" unicode="0" horiz-adv-x="1300" 
d="M500 1350h100q500 0 500 -600v-200q0 -550 -500 -550h-100q-500 0 -500 550v200q0 600 500 600zM250 700v-100q0 -350 250 -350h100q250 0 250 350v100q0 400 -250 400h-100q-250 0 -250 -400z" />
    <glyph glyph-name="one" unicode="1" horiz-adv-x="452" 
d="M102 1350h50q100 0 100 -100l-2 -1150q0 -100 -100 -100h-50q-100 0 -100 100l2 1150q0 100 100 100z" />
    <glyph glyph-name="two" unicode="2" horiz-adv-x="1250" 
d="M250 250h700q100 0 100 -100v-50q0 -100 -100 -100h-950v200q0 500 550 500h50q150 50 150 250q0 150 -200 150t-200 -150q0 -100 -100 -100h-50q-100 0 -100 100q0 400 450 400t450 -400v-50q0 -400 -400 -450h-50q-300 0 -300 -200z" />
    <glyph glyph-name="three" unicode="3" horiz-adv-x="1250" 
d="M600 550h-50l-50 250h100q100 0 100 150v50q0 100 -100 100h-150q-100 0 -100 -50q0 -100 -100 -100h-50q-100 0 -100 100q0 300 350 300h150q300 0 350 -350v-50q0 -200 -150 -250q200 0 250 -200v-200q0 -300 -450 -300h-150q-450 0 -450 300v50q0 100 100 100h50
q100 0 100 -100t250 -100h50q250 0 250 150v50q0 100 -200 100z" />
    <glyph glyph-name="four" unicode="4" horiz-adv-x="1300" 
d="M950 100q0 -100 -100 -100h-50q-100 0 -100 100v200h-700v300l650 750h300v-800h50q100 0 100 -100v-50q0 -100 -100 -100h-50v-200zM700 550v450h-50l-350 -400v-50h400z" />
    <glyph glyph-name="five" unicode="5" horiz-adv-x="1250" 
d="M400 850h150q500 0 500 -400v-50q0 -400 -500 -400h-50q-500 0 -500 400q0 100 100 100h50q100 0 100 -100q0 -150 250 -150h50q250 0 250 150q0 200 -250 200h-250l-200 50l150 700h600q100 0 100 -100v-50q0 -100 -100 -100h-400z" />
    <glyph glyph-name="six" unicode="6" 
d="M400 0q-400 50 -400 350v200q0 800 400 800h150q300 0 350 -300q0 -100 -100 -100h-50q-100 0 -100 100q0 50 -100 50h-100q-200 0 -200 -350q100 50 200 50h200q300 -50 300 -350v-100q0 -300 -400 -350h-150zM250 350q0 -100 150 -100h150q148 0 148 100l2 100v3
q0 97 -148 97h-150q-150 0 -152 -100v-100z" />
    <glyph glyph-name="seven" unicode="7" horiz-adv-x="1200" 
d="M700 1050v50h-600q-100 0 -100 100v50q0 100 100 100h900v-250l-500 -1000q-50 -100 -100 -100h-50q-112 0 -112 56q0 19 12 44z" />
    <glyph glyph-name="eight" unicode="8" horiz-adv-x="1148" 
d="M400 0q-400 0 -400 300v200q0 200 250 200q-150 0 -200 200v150q50 300 350 300h150q300 0 350 -300v-150q-50 -200 -200 -200q200 0 248 -200v-200q0 -300 -398 -300h-150zM250 350q0 -100 150 -100h150q148 0 148 100v102q0 98 -198 98h-50q-200 0 -200 -100v-100z
M450 800h50q150 0 150 100v100q0 100 -150 100h-50q-150 0 -150 -100v-100q0 -100 150 -100z" />
    <glyph glyph-name="nine" unicode="9" 
d="M500 1350q400 0 450 -400v-200q0 -750 -450 -750h-50q-400 0 -450 300v50q0 100 100 100h50q100 0 100 -100t150 -100h100q200 0 200 350q-100 -50 -200 -50h-100q-400 0 -400 350v100q2 350 450 350h50zM700 1000q0 100 -200 100h-50q-198 0 -200 -100v-102
q0 -98 198 -98h52q200 0 200 100v100z" />
    <glyph glyph-name="colon" unicode=":" horiz-adv-x="454" 
d="M102 250h50q100 0 100 -100l-2 -50q0 -100 -100 -100h-50q-100 0 -100 100l2 50q0 100 100 100zM104 850h50q100 0 100 -100l-2 -50q0 -100 -100 -100h-50q-100 0 -100 100l2 50q0 100 100 100z" />
    <glyph glyph-name="semicolon" unicode=";" horiz-adv-x="452" 
d="M102 850h50q98 0 98 -96v-54q0 -100 -100 -100h-50q-100 0 -100 100v50q2 100 102 100zM100 250h50q100 0 100 -100v-200q0 -100 -100 -100h-50v100q0 100 -100 100v100q0 100 100 100z" />
    <glyph glyph-name="semicolon" unicode="&#x37e;" horiz-adv-x="452" 
d="M102 850h50q98 0 98 -96v-54q0 -100 -100 -100h-50q-100 0 -100 100v50q2 100 102 100zM100 250h50q100 0 100 -100v-200q0 -100 -100 -100h-50v100q0 100 -100 100v100q0 100 100 100z" />
    <glyph glyph-name="less" unicode="&#x3c;" horiz-adv-x="1050" 
d="M0 623v50q0 100 50 127l700 250q25 7 44 7q56 0 56 -57v-100q0 -50 -100 -100l-450 -150l450 -150q100 -50 100 -100v-100q0 -57 -56 -57q-19 0 -44 7l-700 250q-50 23 -50 123z" />
    <glyph glyph-name="equal" unicode="=" horiz-adv-x="1050" 
d="M0 900v50q0 100 100 100h650q100 0 100 -100v-50q0 -100 -100 -100h-650q-100 0 -100 100zM0 400v50q0 100 100 100h650q100 0 100 -100v-50q0 -100 -100 -100h-650q-100 0 -100 100z" />
    <glyph glyph-name="greater" unicode="&#x3e;" horiz-adv-x="1050" 
d="M800 500l-700 -250q-25 -7 -44 -7q-56 0 -56 57v100q0 50 100 100l450 150l-450 150q-100 50 -100 100v100q0 57 56 57q19 0 44 -7l700 -250q50 -27 50 -127v-50q0 -100 -50 -123z" />
    <glyph glyph-name="question" unicode="?" horiz-adv-x="1200" 
d="M400 500q-50 -100 -100 -100h-50q-100 0 -100 100q0 300 400 350h50q150 0 150 100q0 150 -200 150h-100q-200 0 -200 -150q0 -100 -100 -100h-50q-100 0 -100 100q0 400 450 400h100q450 0 450 -400v-50q0 -250 -400 -300h-50q-150 0 -150 -100zM250 250h50
q100 0 100 -100v-50q0 -100 -100 -100h-50q-100 0 -100 100v50q0 100 100 100z" />
    <glyph glyph-name="at" unicode="@" horiz-adv-x="1250" 
d="M500 1350h50q500 0 500 -600q0 -200 -250 -250h-150q-250 0 -250 250v50q0 100 100 100h50q100 0 100 -100t50 -100h50q50 0 50 100q0 300 -250 300h-50q-250 0 -250 -400v-100q0 -350 250 -350h100q150 0 150 50q0 100 100 100h50q100 0 100 -100q0 -300 -400 -300h-100
q-500 0 -500 550v200q0 600 500 600z" />
    <glyph glyph-name="A" unicode="A" horiz-adv-x="1252" 
d="M1052 100q0 -100 -50 -100h-100q-50 0 -100 100l-55 200h-427l-70 -200q-48 -100 -100 -100h-98q-52 0 -52 100l352 1150q50 100 100 100h150q50 0 100 -100zM675 550l-123 450h-50l-118 -450h291z" />
    <glyph glyph-name="B" unicode="B" 
d="M0 0l2 1350h550q300 0 300 -300v-150q0 -150 -150 -200q200 0 248 -200v-200q0 -300 -300 -300h-650zM250 250h350q100 0 100 100v103q0 97 -148 97h-302v-300zM252 800h200q150 0 150 100v100q0 100 -100 100h-250v-300z" />
    <glyph glyph-name="C" unicode="C" horiz-adv-x="1250" 
d="M500 1350h50q500 0 500 -400q0 -100 -100 -100h-50q-100 0 -100 100q0 150 -250 150h-50q-250 0 -250 -400v-100q0 -350 250 -350h50q250 0 250 150q0 100 100 100h50q100 0 100 -100q0 -400 -500 -400h-50q-500 0 -500 550v200q0 600 500 600z" />
    <glyph glyph-name="D" unicode="D" horiz-adv-x="1202" 
d="M352 1350q648 0 650 -600v-150q0 -600 -650 -600h-350l-2 100v1250h352zM252 250h100q400 0 400 350v150q0 350 -400 350h-102z" />
    <glyph glyph-name="E" unicode="E" 
d="M950 1250v-50q0 -100 -100 -100h-600v-300h350q100 0 100 -100v-50q0 -100 -100 -100h-352l2 -300h600q100 0 100 -100v-50q0 -100 -100 -100h-850v1350h850q100 0 100 -100z" />
    <glyph glyph-name="F" unicode="F" 
d="M950 1250v-50q0 -100 -100 -100h-600v-300h350q100 0 100 -100v-50q0 -100 -100 -100h-352l2 -300v-150q0 -100 -100 -100h-50q-100 0 -100 100v1250h850q100 0 100 -100z" />
    <glyph glyph-name="G" unicode="G" horiz-adv-x="1300" 
d="M500 1350h50q500 0 500 -350q0 -100 -100 -100h-50q-100 0 -100 100t-250 100h-50q-250 0 -250 -400v-100q0 -350 250 -350h100q250 0 250 150v100h-250q-100 0 -100 100v50q0 100 100 100h500v-350q0 -400 -500 -400h-100q-500 0 -500 550v200q0 600 500 600z" />
    <glyph glyph-name="H" unicode="H" horiz-adv-x="1152" 
d="M102 1350h50q100 0 100 -100v-450h450v450q0 100 100 100h50q100 0 100 -100v-1150q0 -100 -100 -100h-50q-100 0 -100 100v450h-452v-450q0 -100 -100 -100h-50q-100 0 -100 100l2 1150q0 100 100 100z" />
    <glyph glyph-name="I" unicode="I" horiz-adv-x="452" 
d="M102 1350h50q100 0 100 -100l-2 -1150q0 -100 -100 -100h-50q-100 0 -100 100l2 1150q0 100 100 100z" />
    <glyph glyph-name="J" unicode="J" 
d="M100 600h50q100 0 100 -100q0 -250 200 -250h50q200 0 200 250v750q0 100 100 100h50q100 0 100 -100v-750q0 -500 -450 -500h-50q-450 0 -450 500q0 100 100 100z" />
    <glyph glyph-name="K" unicode="K" horiz-adv-x="1252" 
d="M102 1350h50q100 0 100 -100v-600l450 550q100 150 164 150q86 0 102 -50q5 -17 5 -33q0 -34 -21 -67l-350 -450l450 -650q0 -100 -100 -100h-50q-50 0 -100 100l-350 500l-200 -227l-2 -273q0 -100 -100 -100h-50q-100 0 -100 100l2 1150q0 100 100 100z" />
    <glyph glyph-name="L" unicode="L" 
d="M250 1250v-1000h600q100 0 100 -100v-50q0 -100 -100 -100h-850v1250q0 100 100 100h50q100 0 100 -100z" />
    <glyph glyph-name="M" unicode="M" horiz-adv-x="1500" 
d="M1300 100q0 -100 -100 -100h-50q-50 0 -100 100v850l-300 -750q-50 -50 -100 -50t-100 50l-300 750v-850q-48 -100 -100 -100h-50q-100 0 -100 100v1250h300l350 -800l350 800h300v-1250z" />
    <glyph glyph-name="N" unicode="N" horiz-adv-x="1252" 
d="M2 1350h300l500 -950v850q0 100 100 100h50q100 0 100 -100v-1250h-300l-500 950l-2 -850q0 -100 -100 -100h-50q-100 0 -100 100z" />
    <glyph glyph-name="O" unicode="O" horiz-adv-x="1300" 
d="M500 1350h100q500 0 500 -600v-200q0 -550 -500 -550h-100q-500 0 -500 550v200q0 600 500 600zM250 700v-100q0 -350 250 -350h100q250 0 250 350v100q0 400 -250 400h-100q-250 0 -250 -400z" />
    <glyph glyph-name="P" unicode="P" 
d="M650 1350q300 0 300 -300v-200q0 -300 -300 -300h-400v-450q0 -100 -100 -100h-50q-100 0 -100 100v1250h650zM250 800h350q100 0 100 100v100q0 100 -100 100h-350v-300z" />
    <glyph glyph-name="Q" unicode="Q" horiz-adv-x="1300" 
d="M500 1350h100q500 0 500 -600v-200q0 -350 -77 -373q77 -77 77 -127t-50 -50h-100q-50 0 -100 50q-100 -50 -200 -50h-150q-500 0 -500 550v200q0 600 500 600zM250 700v-100q0 -350 250 -350h150l-150 150q-40 40 -40 64q0 36 90 36h100q100 0 100 -50l73 -73
q27 23 27 223v100q0 400 -250 400h-100q-250 0 -250 -400z" />
    <glyph glyph-name="R" unicode="R" horiz-adv-x="1152" 
d="M650 1350q300 0 300 -300v-200q0 -300 -300 -300h-48l300 -400q50 -50 50 -100t-100 -50h-50q-50 0 -150 150l-300 400h-100l-2 -450q0 -100 -100 -100h-50q-100 0 -100 100v1250h650zM250 800h350q100 0 100 100v100q0 100 -100 100h-350v-300z" />
    <glyph glyph-name="S" unicode="S" horiz-adv-x="1250" 
d="M350 1000v-100q0 -100 350 -150t350 -300v-50q0 -400 -500 -400h-50q-500 0 -500 400q0 100 100 100h50q100 0 100 -100q0 -150 250 -150h50q250 0 250 150v50q0 50 -350 125t-350 325v100q0 350 400 350h50q400 0 400 -350q0 -100 -100 -100h-50q-100 0 -100 100
t-150 100h-50q-150 0 -150 -100z" />
    <glyph glyph-name="T" unicode="T" horiz-adv-x="1250" 
d="M1050 1250v-50q0 -100 -100 -100h-300v-1000q0 -100 -100 -100h-50q-100 0 -100 100v1000h-300q-100 0 -100 100v50q0 100 100 100h850q100 0 100 -100z" />
    <glyph glyph-name="U" unicode="U" horiz-adv-x="1200" 
d="M100 1350h50q100 0 100 -100v-750q0 -250 200 -250h100q200 0 200 250v750q0 100 100 100h50q100 0 100 -100v-750q0 -500 -450 -500h-100q-450 0 -450 500v750q0 100 100 100z" />
    <glyph glyph-name="V" unicode="V" horiz-adv-x="1252" 
d="M702 100q-50 -100 -100 -100h-150q-50 0 -100 100l-352 1150q0 100 52 100h98q52 0 100 -100l252 -900h50l250 900q50 100 100 100h100q50 0 50 -100z" />
    <glyph glyph-name="W" unicode="W" horiz-adv-x="1600" 
d="M1100 100q-25 -100 -75 -100h-125q-50 0 -100 100l-100 550l-100 -550q-50 -100 -100 -100h-100q-50 0 -100 100l-300 1150q0 100 52 100h98q52 0 100 -100l200 -850l150 750q50 50 100 50t100 -50l150 -750l200 850q50 100 100 100h100q50 0 50 -100z" />
    <glyph glyph-name="X" unicode="X" horiz-adv-x="1352" 
d="M52 1150q-33 67 -33 111q0 22 8 39q25 50 125 50q50 0 150 -150l250 -323l250 323q100 150 150 150q100 0 116 -50q5 -17 5 -39q0 -44 -21 -111l-350 -450l450 -550q0 -150 -50 -150h-50q-100 0 -150 100l-350 432l-302 -432q-48 -100 -148 -100h-50q-50 0 -50 139v11
l400 550z" />
    <glyph glyph-name="Y" unicode="Y" horiz-adv-x="1282" 
d="M50 1150q-33 67 -33 111q0 22 8 39q25 50 125 50q50 0 150 -150l250 -323l250 323q100 150 150 150q100 0 116 -50q5 -17 5 -39q0 -44 -21 -111l-373 -505v-550q0 -99 -100 -99h-50q-100 0 -100 95v554z" />
    <glyph glyph-name="Z" unicode="Z" horiz-adv-x="1250" 
d="M0 0v300l750 800h-650q-100 0 -100 100v50q0 100 100 100h950v-300l-750 -800h650q100 0 100 -100v-50q0 -100 -100 -100h-950z" />
    <glyph glyph-name="bracketleft" unicode="[" horiz-adv-x="950" 
d="M750 1500v-50q0 -100 -100 -100h-400v-1350h400q100 0 100 -100v-50q0 -100 -100 -100h-650v1850h650q100 0 100 -100z" />
    <glyph glyph-name="backslash" unicode="\" horiz-adv-x="1050" 
d="M850 250q0 -100 -50 -100h-50q-100 0 -150 100l-600 850q0 100 50 100h50q100 0 150 -100z" />
    <glyph glyph-name="bracketright" unicode="]" horiz-adv-x="950" 
d="M100 1600h650v-1850h-650q-100 0 -100 100v50q0 100 100 100h400v1350h-400q-100 0 -100 100v50q0 100 100 100z" />
    <glyph glyph-name="asciicircum" unicode="^" horiz-adv-x="800" 
d="M400 1749l200 -200q0 -149 -50 -149h-51q-50 0 -149 100l-50 49l-50 -50q-100 -100 -148 -100h-50q-52 0 -52 150l200 201z" />
    <glyph glyph-name="underscore" unicode="_" horiz-adv-x="1400" 
d="M100 -150h1000q100 0 100 -100v-50q0 -100 -100 -100h-1000q-100 0 -100 100v50q0 100 100 100z" />
    <glyph glyph-name="grave" unicode="`" horiz-adv-x="550" 
d="M100 1747h50q50 0 100 -50l50 -50q50 -50 50 -100q0 -100 -100 -100h-50q-50 0 -100 50l-50 50q-50 50 -50 100q0 100 100 100z" />
    <glyph glyph-name="a" unicode="a" horiz-adv-x="1002" 
d="M842 80q0 -80 -40 -80h-80q-40 0 -80 80l-44 160h-342l-56 -160q-38 -80 -80 -80h-78q-42 0 -42 80l282 920q40 80 80 80h120q40 0 80 -80zM540 440l-98 360h-40l-95 -360h233z" />
    <glyph glyph-name="b" unicode="b" horiz-adv-x="920" 
d="M0 0l2 1080h440q240 0 240 -240v-120q0 -120 -120 -160q160 0 198 -160v-160q0 -240 -240 -240h-520zM200 200h280q80 0 80 80v82q0 78 -118 78h-242v-240zM202 640h160q120 0 120 80v80q0 80 -80 80h-200v-240z" />
    <glyph glyph-name="c" unicode="c" horiz-adv-x="1000" 
d="M400 1080h40q400 0 400 -320q0 -80 -80 -80h-40q-80 0 -80 80q0 120 -200 120h-40q-200 0 -200 -320v-80q0 -280 200 -280h40q200 0 200 120q0 80 80 80h40q80 0 80 -80q0 -320 -400 -320h-40q-400 0 -400 440v160q0 480 400 480z" />
    <glyph glyph-name="d" unicode="d" horiz-adv-x="962" 
d="M282 1080q518 0 520 -480v-120q0 -480 -520 -480h-280l-2 80v1000h282zM202 200h80q320 0 320 280v120q0 280 -320 280h-82z" />
    <glyph glyph-name="e" unicode="e" horiz-adv-x="920" 
d="M760 1000v-40q0 -80 -80 -80h-480v-240h280q80 0 80 -80v-40q0 -80 -80 -80h-282l2 -240h480q80 0 80 -80v-40q0 -80 -80 -80h-680v1080h680q80 0 80 -80z" />
    <glyph glyph-name="f" unicode="f" horiz-adv-x="920" 
d="M760 1000v-40q0 -80 -80 -80h-480v-240h280q80 0 80 -80v-40q0 -80 -80 -80h-282l2 -240v-120q0 -80 -80 -80h-40q-80 0 -80 80v1000h680q80 0 80 -80z" />
    <glyph glyph-name="g" unicode="g" horiz-adv-x="1040" 
d="M400 1080h40q400 0 400 -280q0 -80 -80 -80h-40q-80 0 -80 80t-200 80h-40q-200 0 -200 -320v-80q0 -280 200 -280h80q200 0 200 120v80h-200q-80 0 -80 80v40q0 80 80 80h400v-280q0 -320 -400 -320h-80q-400 0 -400 440v160q0 480 400 480z" />
    <glyph glyph-name="h" unicode="h" horiz-adv-x="922" 
d="M82 1080h40q80 0 80 -80v-360h360v360q0 80 80 80h40q80 0 80 -80v-920q0 -80 -80 -80h-40q-80 0 -80 80v360h-362v-360q0 -80 -80 -80h-40q-80 0 -80 80l2 920q0 80 80 80z" />
    <glyph glyph-name="i" unicode="i" horiz-adv-x="362" 
d="M82 1080h40q80 0 80 -80l-2 -920q0 -80 -80 -80h-40q-80 0 -80 80l2 920q0 80 80 80z" />
    <glyph glyph-name="j" unicode="j" horiz-adv-x="920" 
d="M80 480h40q80 0 80 -80q0 -200 160 -200h40q160 0 160 200v600q0 80 80 80h40q80 0 80 -80v-600q0 -400 -360 -400h-40q-360 0 -360 400q0 80 80 80z" />
    <glyph glyph-name="k" unicode="k" horiz-adv-x="1002" 
d="M82 1080h40q80 0 80 -80v-480l360 440q80 120 131 120q69 0 81 -40q4 -14 4 -26q0 -28 -16 -54l-280 -360l360 -520q0 -80 -80 -80h-40q-40 0 -80 80l-280 400l-160 -182l-2 -218q0 -80 -80 -80h-40q-80 0 -80 80l2 920q0 80 80 80z" />
    <glyph glyph-name="l" unicode="l" horiz-adv-x="920" 
d="M200 1000v-800h480q80 0 80 -80v-40q0 -80 -80 -80h-680v1000q0 80 80 80h40q80 0 80 -80z" />
    <glyph glyph-name="m" unicode="m" horiz-adv-x="1200" 
d="M1040 80q0 -80 -80 -80h-40q-40 0 -80 80v680l-240 -600q-40 -40 -80 -40t-80 40l-240 600v-680q-38 -80 -80 -80h-40q-80 0 -80 80v1000h240l280 -640l280 640h240v-1000z" />
    <glyph glyph-name="n" unicode="n" horiz-adv-x="1002" 
d="M2 1080h240l400 -760v680q0 80 80 80h40q80 0 80 -80v-1000h-240l-400 760l-2 -680q0 -80 -80 -80h-40q-80 0 -80 80z" />
    <glyph glyph-name="o" unicode="o" horiz-adv-x="1040" 
d="M400 1080h80q400 0 400 -480v-160q0 -440 -400 -440h-80q-400 0 -400 440v160q0 480 400 480zM200 560v-80q0 -280 200 -280h80q200 0 200 280v80q0 320 -200 320h-80q-200 0 -200 -320z" />
    <glyph glyph-name="p" unicode="p" horiz-adv-x="920" 
d="M520 1080q240 0 240 -240v-160q0 -240 -240 -240h-320v-360q0 -80 -80 -80h-40q-80 0 -80 80v1000h520zM200 640h280q80 0 80 80v80q0 80 -80 80h-280v-240z" />
    <glyph glyph-name="q" unicode="q" horiz-adv-x="1040" 
d="M400 1080h80q400 0 400 -480v-160q0 -280 -62 -298q62 -62 62 -102t-40 -40h-80q-40 0 -80 40q-80 -40 -160 -40h-120q-400 0 -400 440v160q0 480 400 480zM200 560v-80q0 -280 200 -280h120l-120 120q-32 32 -32 51q0 29 72 29h80q80 0 80 -40l58 -58q22 18 22 178v80
q0 320 -200 320h-80q-200 0 -200 -320z" />
    <glyph glyph-name="r" unicode="r" horiz-adv-x="922" 
d="M520 1080q240 0 240 -240v-160q0 -240 -240 -240h-38l240 -320q40 -40 40 -80t-80 -40h-40q-40 0 -120 120l-240 320h-80l-2 -360q0 -80 -80 -80h-40q-80 0 -80 80v1000h520zM200 640h280q80 0 80 80v80q0 80 -80 80h-280v-240z" />
    <glyph glyph-name="s" unicode="s" horiz-adv-x="1000" 
d="M280 800v-80q0 -80 280 -120t280 -240v-40q0 -320 -400 -320h-40q-400 0 -400 320q0 80 80 80h40q80 0 80 -80q0 -120 200 -120h40q200 0 200 120v40q0 40 -280 100t-280 260v80q0 280 320 280h40q320 0 320 -280q0 -80 -80 -80h-40q-80 0 -80 80t-120 80h-40
q-120 0 -120 -80z" />
    <glyph glyph-name="t" unicode="t" horiz-adv-x="1000" 
d="M840 1000v-40q0 -80 -80 -80h-240v-800q0 -80 -80 -80h-40q-80 0 -80 80v800h-240q-80 0 -80 80v40q0 80 80 80h680q80 0 80 -80z" />
    <glyph glyph-name="u" unicode="u" horiz-adv-x="960" 
d="M80 1080h40q80 0 80 -80v-600q0 -200 160 -200h80q160 0 160 200v600q0 80 80 80h40q80 0 80 -80v-600q0 -400 -360 -400h-80q-360 0 -360 400v600q0 80 80 80z" />
    <glyph glyph-name="v" unicode="v" horiz-adv-x="1002" 
d="M562 80q-40 -80 -80 -80h-120q-40 0 -80 80l-282 920q0 80 42 80h78q42 0 80 -80l202 -720h40l200 720q40 80 80 80h80q40 0 40 -80z" />
    <glyph glyph-name="w" unicode="w" horiz-adv-x="1280" 
d="M880 80q-20 -80 -60 -80h-100q-40 0 -80 80l-80 440l-80 -440q-40 -80 -80 -80h-80q-40 0 -80 80l-240 920q0 80 42 80h78q42 0 80 -80l160 -680l120 600q40 40 80 40t80 -40l120 -600l160 680q40 80 80 80h80q40 0 40 -80z" />
    <glyph glyph-name="x" unicode="x" horiz-adv-x="1082" 
d="M42 920q-26 54 -26 89q0 17 6 31q20 40 100 40q40 0 120 -120l200 -258l200 258q80 120 120 120q80 0 93 -40q4 -14 4 -31q0 -35 -17 -89l-280 -360l360 -440q0 -120 -40 -120h-40q-80 0 -120 80l-280 346l-242 -346q-38 -80 -118 -80h-40q-40 0 -40 111v9l320 440z" />
    <glyph glyph-name="y" unicode="y" horiz-adv-x="1026" 
d="M40 920q-26 54 -26 89q0 17 6 31q20 40 100 40q40 0 120 -120l200 -258l200 258q80 120 120 120q80 0 93 -40q4 -14 4 -31q0 -35 -17 -89l-298 -404v-440q0 -79 -80 -79h-40q-80 0 -80 76v443z" />
    <glyph glyph-name="z" unicode="z" horiz-adv-x="1000" 
d="M0 0v240l600 640h-520q-80 0 -80 80v40q0 80 80 80h760v-240l-600 -640h520q80 0 80 -80v-40q0 -80 -80 -80h-760z" />
    <glyph glyph-name="braceleft" unicode="{" horiz-adv-x="900" 
d="M450 450v-350q0 -100 100 -100h100q100 0 100 -100v-50q0 -100 -100 -100h-150q-300 0 -300 300v400q0 100 -100 100q-100 1 -100 100v50q0 100 100 100t100 100v400q50 300 350 300h100q100 0 100 -100v-50q0 -100 -100 -100h-100q-100 0 -100 -100v-350
q0 -200 -150 -200v-50q150 0 150 -200z" />
    <glyph glyph-name="bar" unicode="|" horiz-adv-x="450" 
d="M100 1650h50q100 0 100 -100v-1850q0 -100 -100 -100h-50q-100 0 -100 100v1850q0 100 100 100z" />
    <glyph glyph-name="braceright" unicode="}" horiz-adv-x="900" 
d="M450 650v50q-150 0 -150 200v350q0 100 -100 100h-100q-100 0 -100 100v50q0 100 100 100h100q300 0 350 -300v-400q0 -100 100 -100t100 -100v-50q0 -99 -100 -100q-100 0 -100 -100v-400q0 -300 -300 -300h-150q-100 0 -100 100v50q0 100 100 100h100q100 0 100 100
v350q0 200 150 200z" />
    <glyph glyph-name="asciitilde" unicode="~" horiz-adv-x="950" 
d="M501 1650q0 101 100 101h50q100 0 100 -101l-1 -50q0 -150 -150 -150q-100 0 -350 100q0 -100 -100 -100h-50q-100 0 -100 100l1 50q0 149 150 150q150 0 350 -100z" />
    <glyph glyph-name="exclamdown" unicode="&#xa1;" horiz-adv-x="452" 
d="M2 1200l-2 50q0 100 100 100h50q100 0 100 -100l2 -50q0 -100 -100 -100h-50q-100 0 -100 100zM2 77v773q0 100 100 100h50q100 0 100 -100v-773q0 -77 -100 -77h-50q-100 0 -100 77z" />
    <glyph glyph-name="cent" unicode="&#xa2;" horiz-adv-x="1200" 
d="M375 110q-375 64 -375 540q0 520 375 589v11q0 100 100 100h50q100 0 100 -100v-7q375 -47 375 -393q0 -100 -100 -100h-50q-100 0 -100 100q0 150 -250 150t-250 -300v-100q0 -250 250 -250t250 150q0 100 100 100h50q100 0 100 -100q0 -346 -375 -393v-7
q0 -100 -100 -100h-50q-100 0 -100 100v10z" />
    <glyph glyph-name="sterling" unicode="&#xa3;" 
d="M454 800h146q100 0 100 -100v-50q0 -100 -100 -100h-152l2 -300h400q100 0 100 -100v-50q0 -100 -100 -100h-750q-100 0 -100 100v50q0 100 100 100h100v300h-100q-100 0 -100 100v50q0 100 100 100h101q20 550 499 550h150q100 0 100 -100v-50q0 -100 -100 -100h-150
q-217 0 -246 -300z" />
    <glyph glyph-name="currency" unicode="&#xa4;" horiz-adv-x="1014" 
d="M350 560q41 -40 99 -57q29 -8 58 -8t58 8q58 17 99 57q40 41 57 99q9 29 9 58t-9 58q-17 58 -57 99q-41 40 -100 57q-29 8 -58 8t-58 -9q-58 -17 -98 -56q-39 -40 -56 -98q-10 -30 -10 -60q0 -28 9 -56q16 -59 57 -100zM240 903l-118 118l80 81l118 -118q44 30 99 46
q44 14 89 14q41 0 83 -12q57 -17 102 -48l118 118l80 -81l-117 -117q31 -46 48 -102q12 -42 12 -85q0 -42 -12 -85q-17 -56 -48 -102l117 -117l-80 -81l-118 118q-45 -32 -101 -48q-42 -12 -85 -12q-42 0 -85 12q-57 16 -102 48l-118 -118l-80 81l118 117q-32 46 -48 103
q-12 42 -12 84q0 44 13 87q16 55 47 99z" />
    <glyph glyph-name="yen" unicode="&#xa5;" horiz-adv-x="1282" 
d="M677 100v-5q0 -99 -100 -99h-50q-100 0 -100 95v9h-202q-100 0 -100 100v50q0 100 100 100h202v100h-202q-100 0 -100 100v50q0 100 100 100h161l-336 450q-33 67 -33 111q0 22 8 39q25 50 125 50q50 0 150 -150l250 -323l250 323q100 150 150 150q100 0 116 -50
q5 -17 5 -39q0 -44 -21 -111l-332 -450h157q100 0 100 -100v-50q0 -100 -100 -100h-198v-100h198q100 0 100 -100v-50q0 -100 -100 -100h-198z" />
    <glyph glyph-name="brokenbar" unicode="&#xa6;" horiz-adv-x="1014" 
d="M427 371h160v-789h-160v789zM427 1578h160v-789h-160v789z" />
    <glyph glyph-name="section" unicode="&#xa7;" horiz-adv-x="1014" 
d="M545 321q56 16 97 53q73 65 73 166q0 5 -1 10h-2q-1 14 -4 27q-22 61 -113 127q-59 29 -126 29q-78 0 -125 -44.5t-47 -117.5q0 -123 248 -250zM466 -346q113 6 185 69q72 64 72 165q0 125 -316 276q-123 64 -175.5 137t-52.5 177q0 148 89 237q67 65 170 82l-40 19
q-123 64 -175.5 137t-52.5 177q0 148 89 237q82 79 216 86q8 1 17 1h3q66 0 163 -16.5t97 -41.5v-194h-51q-5 81 -80 132q-70 47 -149 51h-15q-78 0 -125 -44.5t-47 -117.5q0 -132 287 -269q149 -67 204.5 -143.5t55.5 -187.5q0 -171 -101 -282q-47 -39 -99 -64
q108 -56 154 -118q55 -77 55 -187q0 -171 -101 -283q-124 -102 -277 -105v1q-6 -1 -13 -1h-3q-66 0 -163 16.5t-97 41.5v194h51q5 -81 80 -132q68 -45 145 -50z" />
    <glyph glyph-name="dieresis" unicode="&#xa8;" horiz-adv-x="850" 
d="M100 1700h50q100 0 100 -100l-2 -50q0 -100 -100 -100h-50q-100 0 -100 100l2 50q0 100 100 100zM500 1700h50q100 0 100 -100l-2 -50q0 -100 -100 -100h-50q-100 0 -100 100l2 50q0 100 100 100z" />
    <glyph glyph-name="copyright" unicode="&#xa9;" horiz-adv-x="1674" 
d="M840 1456q145 0 280 -56.5t239 -160.5q102 -101 158.5 -238t56.5 -283q0 -147 -56.5 -282t-162.5 -240q-105 -105 -239 -159.5t-283 -54.5q-146 0 -278 55.5t-238 160.5q-106 104 -161.5 237.5t-55.5 282.5q0 148 55.5 283t159.5 238q102 104 238.5 160.5t286.5 56.5z
M357 1197q-95 -96 -146 -219.5t-51 -259.5q0 -137 51 -259t148 -219q98 -96 219 -147t256 -51q137 0 259.5 50.5t219.5 145.5q97 98 149 221.5t52 258.5q0 134 -52 259.5t-145 219.5q-96 96 -220 147.5t-258 51.5q-137 0 -262 -51.5t-220 -147.5zM865 223q-142 0 -264 68
t-186 185t-64 243t65.5 244t187.5 184.5t254 66.5q38 0 75 -6.5t76 -20.5q5 -1 9 -1q19 0 26 30h42l72 -198h-44q-52 94 -131 124q-72 26 -147 26h-15q-86 -8 -166.5 -71t-121.5 -177q-33 -90 -33 -184q0 -25 2 -50q11 -121 69.5 -224t149.5 -152q72 -40 166 -42
q124 0 194 56t70 126h53v-100q0 -46 -96.5 -86.5t-242.5 -40.5z" />
    <glyph glyph-name="ordfeminine" unicode="&#xaa;" horiz-adv-x="648" 
 />
    <glyph glyph-name="guillemotleft" unicode="&#xab;" horiz-adv-x="944" 
d="M174 479l342 303h14v-37l-205 -266l205 -266v-37h-14zM487 479l342 303h14v-37l-205 -266l205 -266v-37h-14z" />
    <glyph glyph-name="logicalnot" unicode="&#xac;" horiz-adv-x="1014" 
d="M87 767h840v-491l-1 -1h-98v392h-741v100z" />
    <glyph glyph-name="registered" unicode="&#xae;" horiz-adv-x="1674" 
d="M751 1099v-374l3 -8q23 -56 56 -81q29 -22 56 -22h6q31 4 61.5 38.5t46.5 97.5q13 50 13 103q0 13 -1 27q-4 67 -28 124.5t-56.5 76t-63.5 18.5h-93zM984 576l82 -116q100 -141 150 -141h34v-50h-346v50h45q30 0 30 22q0 29 -69 114l-75 102q-42 0 -84 42v-159
q0 -121 36 -121h53v-50h-316v50h43q37 0 37 121v538q0 121 -37 121h-43v70h356q64 -1 125 -42q60 -41 92.5 -114t32.5 -152q0 -78 -32 -150.5t-114 -134.5zM840 1456q145 0 280 -56.5t239 -160.5q102 -101 158.5 -238t56.5 -283q0 -147 -56.5 -282t-162.5 -240
q-105 -105 -239 -159.5t-283 -54.5q-146 0 -278 55.5t-238 160.5q-106 104 -161.5 237.5t-55.5 282.5q0 148 55.5 283t159.5 238q102 104 238.5 160.5t286.5 56.5zM357 1197q-95 -96 -146 -219.5t-51 -259.5q0 -137 51 -259t148 -219q98 -96 219 -147t256 -51
q137 0 259.5 50.5t219.5 145.5q97 98 149 221.5t52 258.5q0 134 -52 259.5t-145 219.5q-96 96 -220 147.5t-258 51.5q-137 0 -262 -51.5t-220 -147.5z" />
    <glyph glyph-name="macron" unicode="&#xaf;" horiz-adv-x="670" 
 />
    <glyph glyph-name="degree" unicode="&#xb0;" horiz-adv-x="674" 
d="M339 1372q-86 0 -147.5 -61t-61.5 -148t61 -147t148 -60t147 60t60 147t-60.5 148t-146.5 61zM339 1442q115 0 196 -81.5t81 -196.5q0 -114 -82 -196t-197 -82q-117 0 -197 81t-80 197t81.5 197t197.5 81z" />
    <glyph glyph-name="plusminus" unicode="&#xb1;" horiz-adv-x="1014" 
 />
    <glyph glyph-name="uni00B2" unicode="&#xb2;" horiz-adv-x="1014" 
 />
    <glyph glyph-name="uni00B3" unicode="&#xb3;" horiz-adv-x="1014" 
 />
    <glyph glyph-name="acute" unicode="&#xb4;" horiz-adv-x="550" 
d="M349 1650q0 -50 -50 -100l-49 -50q-50 -50 -100 -50h-50q-100 0 -100 100v2q0 49 49 98l50 50q50 50 100 50h50q100 0 100 -100z" />
    <glyph glyph-name="mu" unicode="&#xb5;" horiz-adv-x="1200" 
d="M0 1250q0 100 100 100h50q100 0 100 -100l1 -785q14 -215 199 -215h100q200 0 200 250v750q0 100 100 100h50q100 0 100 -100v-750q0 -500 -450 -500h-100q-114 0 -200 32v-182q0 -100 -100 -100h-50q-100 0 -100 100v1400z" />
    <glyph glyph-name="paragraph" unicode="&#xb6;" horiz-adv-x="1024" 
d="M929 1435v-70h-127v-1365h-82v1365h-166v-1365h-84v738q-174 8 -275.5 102.5t-101.5 245.5q0 157 107.5 253t285.5 96h443z" />
    <glyph glyph-name="periodcentered" unicode="&#xb7;" horiz-adv-x="454" 
d="M104 850h50q100 0 100 -100l-2 -50q0 -100 -100 -100h-50q-100 0 -100 100l2 50q0 100 100 100z" />
    <glyph glyph-name="periodcentered" unicode="&#x2219;" horiz-adv-x="454" 
d="M104 850h50q100 0 100 -100l-2 -50q0 -100 -100 -100h-50q-100 0 -100 100l2 50q0 100 100 100z" />
    <glyph glyph-name="cedilla" unicode="&#xb8;" horiz-adv-x="600" 
d="M400 4v-154q0 -200 -200 -200h-100q-100 0 -100 100v50q0 100 100 100q50 0 50 50v56q0 94 100 94h50q100 0 100 -96z" />
    <glyph glyph-name="uni00B9" unicode="&#xb9;" horiz-adv-x="1014" 
 />
    <glyph glyph-name="ordmasculine" unicode="&#xba;" horiz-adv-x="718" 
 />
    <glyph glyph-name="guillemotright" unicode="&#xbb;" horiz-adv-x="944" 
d="M115 176h-14v37l205 266l-205 266v37h14l342 -303zM428 176h-14v37l205 266l-205 266v37h14l342 -303z" />
    <glyph glyph-name="onequarter" unicode="&#xbc;" horiz-adv-x="1708" 
 />
    <glyph glyph-name="onehalf" unicode="&#xbd;" horiz-adv-x="1964" 
 />
    <glyph glyph-name="threequarters" unicode="&#xbe;" horiz-adv-x="1708" 
 />
    <glyph glyph-name="questiondown" unicode="&#xbf;" horiz-adv-x="1200" 
d="M600 850q50 100 100 100h50q100 0 100 -100q0 -300 -400 -350h-50q-150 0 -150 -100q0 -150 200 -150h100q200 0 200 150q0 100 100 100h50q100 0 100 -100q0 -400 -450 -400h-100q-450 0 -450 400v50q0 250 400 300h50q150 0 150 100zM750 1100h-50q-100 0 -100 100v50
q0 100 100 100h50q100 0 100 -100v-50q0 -100 -100 -100z" />
    <glyph glyph-name="Agrave" unicode="&#xc0;" horiz-adv-x="1252" 
d="M1052 100q0 -100 -50 -100h-100q-50 0 -100 100l-55 200h-427l-70 -200q-48 -100 -100 -100h-98q-52 0 -52 100l352 1150q50 100 100 100h150q50 0 100 -100zM675 550l-123 450h-50l-118 -450h291zM451 1750h50q50 0 99 -51l50 -49q50 -50 50 -98v-2q0 -100 -100 -100
h-50q-50 0 -100 50l-49 50q-50 50 -50 100q0 100 100 100z" />
    <glyph glyph-name="Aacute" unicode="&#xc1;" horiz-adv-x="1252" 
d="M1052 100q0 -100 -50 -100h-100q-50 0 -100 100l-55 200h-427l-70 -200q-48 -100 -100 -100h-98q-52 0 -52 100l352 1150q50 100 100 100h150q50 0 100 -100zM675 550l-123 450h-50l-118 -450h291zM749 1650q0 -50 -50 -100l-50 -50q-50 -50 -100 -50h-50
q-100 0 -100 100q0 49 50 100l50 49q50 51 100 51h50q100 0 100 -100z" />
    <glyph glyph-name="Acircumflex" unicode="&#xc2;" horiz-adv-x="1252" 
d="M1052 100q0 -100 -50 -100h-100q-50 0 -100 100l-55 200h-427l-70 -200q-48 -100 -100 -100h-98q-52 0 -52 100l352 1150q50 100 100 100h150q50 0 100 -100zM675 550l-123 450h-50l-118 -450h291zM623 1750l201 -200q-1 -150 -51 -150h-50q-50 0 -150 100l-50 50
l-50 -50q-100 -100 -148 -100h-50q-52 0 -52 150l200 200h200z" />
    <glyph glyph-name="Atilde" unicode="&#xc3;" horiz-adv-x="1252" 
d="M1052 100q0 -100 -50 -100h-100q-50 0 -100 100l-55 200h-427l-70 -200q-48 -100 -100 -100h-98q-52 0 -52 100l352 1150q50 100 100 100h150q50 0 100 -100zM675 550l-123 450h-50l-118 -450h291zM651 1650q0 101 100 101h50q100 0 100 -101l-1 -50q0 -150 -150 -150
q-100 0 -350 100q0 -100 -100 -100h-50q-100 0 -100 100l1 50q0 149 150 150q150 0 350 -100z" />
    <glyph glyph-name="Adieresis" unicode="&#xc4;" horiz-adv-x="1252" 
d="M1052 100q0 -100 -50 -100h-100q-50 0 -100 100l-55 200h-427l-70 -200q-48 -100 -100 -100h-98q-52 0 -52 100l352 1150q50 100 100 100h150q50 0 100 -100zM675 550l-123 450h-50l-118 -450h291zM302 1700h50q100 0 100 -100l-2 -50q0 -100 -100 -100h-50
q-100 0 -100 100l2 50q0 100 100 100zM702 1700h50q100 0 100 -100l-2 -50q0 -100 -100 -100h-50q-100 0 -100 100l2 50q0 100 100 100z" />
    <glyph glyph-name="Aring" unicode="&#xc5;" horiz-adv-x="1252" 
d="M1052 100q0 -100 -50 -100h-100q-50 0 -100 100l-55 200h-427l-70 -200q-48 -100 -100 -100h-98q-52 0 -52 100l352 1150q50 100 100 100h150q50 0 100 -100zM675 550l-123 450h-50l-118 -450h291zM501 1700h50q100 0 100 -100l-1 -50q-1 -100 -101 -100h-50
q-100 0 -100 100l1 50q1 100 101 100z" />
    <glyph glyph-name="AE" unicode="&#xc6;" horiz-adv-x="1800" 
d="M650 550v91l-100 359h-48l-118 -450h266zM1500 1350q100 0 100 -100v-50q0 -100 -100 -100h-600v-300h350q100 0 100 -100v-50q0 -100 -100 -100h-350v-300h600q100 0 100 -100v-50q0 -100 -100 -100h-850v300h-330l-70 -200q-48 -100 -100 -100h-98q-52 0 -52 100
l352 1150q50 100 100 100h1048z" />
    <glyph glyph-name="Ccedilla" unicode="&#xc7;" horiz-adv-x="1250" 
d="M650 4v-154q0 -200 -200 -200h-100q-100 0 -100 100v50q0 100 100 100q50 0 50 50v56q-400 52 -400 544v200q0 600 500 600h50q500 0 500 -400q0 -100 -100 -100h-50q-100 0 -100 100q0 150 -250 150h-50q-250 0 -250 -400v-100q0 -350 250 -350h50q250 0 250 150
q0 100 100 100h50q100 0 100 -100q0 -358 -400 -396z" />
    <glyph glyph-name="Egrave" unicode="&#xc8;" 
d="M950 1250v-50q0 -100 -100 -100h-600v-300h350q100 0 100 -100v-50q0 -100 -100 -100h-352l2 -300h600q100 0 100 -100v-50q0 -100 -100 -100h-850v1350h850q100 0 100 -100zM400 1750h50q50 0 100 -51l50 -49q50 -50 50 -98v-2q0 -100 -100 -100h-50q-50 0 -100 50
l-50 50q-50 50 -50 100q0 100 100 100z" />
    <glyph glyph-name="Eacute" unicode="&#xc9;" 
d="M700 1650q0 -50 -50 -100l-49 -50q-50 -50 -100 -50h-50q-100 0 -100 100v2q0 49 49 98l50 50q50 50 100 50h50q100 0 100 -100zM950 1250v-50q0 -100 -100 -100h-600v-300h350q100 0 100 -100v-50q0 -100 -100 -100h-352l2 -300h600q100 0 100 -100v-50
q0 -100 -100 -100h-850v1350h850q100 0 100 -100z" />
    <glyph glyph-name="Ecircumflex" unicode="&#xca;" 
d="M950 1250v-50q0 -100 -100 -100h-600v-300h350q100 0 100 -100v-50q0 -100 -100 -100h-352l2 -300h600q100 0 100 -100v-50q0 -100 -100 -100h-850v1350h850q100 0 100 -100zM600 1750l201 -200q-1 -150 -51 -150h-50q-50 0 -150 100l-50 50l-50 -50q-100 -100 -148 -100
h-50q-52 0 -52 150l200 200h200z" />
    <glyph glyph-name="Edieresis" unicode="&#xcb;" 
d="M950 1250v-50q0 -100 -100 -100h-600v-300h350q100 0 100 -100v-50q0 -100 -100 -100h-352l2 -300h600q100 0 100 -100v-50q0 -100 -100 -100h-850v1350h850q100 0 100 -100zM252 1700h50q98 0 98 -96v-54q0 -100 -100 -100h-50q-100 0 -100 100v50q2 100 102 100z
M652 1700h50q98 0 98 -96v-54q0 -100 -100 -100h-50q-100 0 -100 100v50q2 100 102 100z" />
    <glyph glyph-name="Igrave" unicode="&#xcc;" horiz-adv-x="452" 
d="M102 1350h50q100 0 100 -100l-2 -1150q0 -100 -100 -100h-50q-100 0 -100 100l2 1150q0 100 100 100zM50 1750h50q50 0 99 -51l50 -49q50 -50 50 -98v-2q0 -100 -100 -100h-50q-50 0 -100 50l-49 50q-50 50 -50 100q0 100 100 100z" />
    <glyph glyph-name="Iacute" unicode="&#xcd;" horiz-adv-x="452" 
d="M102 1350h50q100 0 100 -100l-2 -1150q0 -100 -100 -100h-50q-100 0 -100 100l2 1150q0 100 100 100zM300 1650q0 -50 -50 -100l-50 -50q-50 -50 -100 -50h-50q-100 0 -100 100q0 49 50 100l50 49q50 51 100 51h50q100 0 100 -100z" />
    <glyph glyph-name="Icircumflex" unicode="&#xce;" horiz-adv-x="452" 
d="M102 1350h50q100 0 100 -100l-2 -1150q0 -100 -100 -100h-50q-100 0 -100 100l2 1150q0 100 100 100zM225 1750l201 -200q-1 -150 -51 -150h-50q-50 0 -150 100l-50 50l-50 -50q-100 -100 -148 -100h-50q-52 0 -52 150l200 200h200z" />
    <glyph glyph-name="Idieresis" unicode="&#xcf;" horiz-adv-x="452" 
d="M102 1350h50q100 0 100 -100l-2 -1150q0 -100 -100 -100h-50q-100 0 -100 100l2 1150q0 100 100 100zM-100 1700h50q100 0 100 -100l-2 -50q0 -100 -100 -100h-50q-100 0 -100 100l2 50q0 100 100 100zM300 1700h50q100 0 100 -100l-2 -50q0 -100 -100 -100h-50
q-100 0 -100 100l2 50q0 100 100 100z" />
    <glyph glyph-name="Eth" unicode="&#xd0;" horiz-adv-x="1400" 
d="M449 550l1 -300h100q400 0 400 350v150q0 350 -400 350h-102l1 -300h299q100 0 100 -100v-50q0 -100 -100 -100h-299zM198 800v550h352q648 0 650 -600v-150q0 -600 -650 -600h-350l-2 100v450h-100q-100 0 -100 100v50q0 100 100 100h100z" />
    <glyph glyph-name="Ntilde" unicode="&#xd1;" horiz-adv-x="1252" 
d="M2 1350h300l500 -950v850q0 100 100 100h50q100 0 100 -100v-1250h-300l-500 950l-2 -850q0 -100 -100 -100h-50q-100 0 -100 100zM651 1650q0 101 100 101h50q100 0 100 -101l-1 -50q0 -150 -150 -150q-100 0 -350 100q0 -100 -100 -100h-50q-100 0 -100 100l1 50
q0 149 150 150q150 0 350 -100z" />
    <glyph glyph-name="Ograve" unicode="&#xd2;" horiz-adv-x="1300" 
d="M500 1350h100q500 0 500 -600v-200q0 -550 -500 -550h-100q-500 0 -500 550v200q0 600 500 600zM250 700v-100q0 -350 250 -350h100q250 0 250 350v100q0 400 -250 400h-100q-250 0 -250 -400zM501 1749h50q50 0 99 -50l51 -50q49 -49 49 -98v-2q0 -100 -100 -100h-50
q-50 0 -100 50l-49 50q-50 50 -50 100q0 100 100 100z" />
    <glyph glyph-name="Oacute" unicode="&#xd3;" horiz-adv-x="1300" 
d="M500 1350h100q500 0 500 -600v-200q0 -550 -500 -550h-100q-500 0 -500 550v200q0 600 500 600zM250 700v-100q0 -350 250 -350h100q250 0 250 350v100q0 400 -250 400h-100q-250 0 -250 -400zM749 1650q0 -50 -50 -100l-50 -50q-50 -50 -100 -50h-50q-100 0 -100 100
q0 49 50 100l50 49q50 51 100 51h50q100 0 100 -100z" />
    <glyph glyph-name="Ocircumflex" unicode="&#xd4;" horiz-adv-x="1300" 
d="M500 1350h100q500 0 500 -600v-200q0 -550 -500 -550h-100q-500 0 -500 550v200q0 600 500 600zM250 700v-100q0 -350 250 -350h100q250 0 250 350v100q0 400 -250 400h-100q-250 0 -250 -400zM650 1750l200 -200q0 -150 -50 -150h-50q-50 0 -150 100l-50 50l-50 -50
q-100 -100 -148 -100h-50q-52 0 -52 150l200 200h200z" />
    <glyph glyph-name="Otilde" unicode="&#xd5;" horiz-adv-x="1300" 
d="M500 1350h100q500 0 500 -600v-200q0 -550 -500 -550h-100q-500 0 -500 550v200q0 600 500 600zM250 700v-100q0 -350 250 -350h100q250 0 250 350v100q0 400 -250 400h-100q-250 0 -250 -400zM676 1650q0 101 100 101h50q100 0 100 -101l-1 -50q0 -150 -150 -150
q-100 0 -350 100q0 -100 -100 -100h-50q-100 0 -100 100l1 50q0 149 150 150q150 0 350 -100z" />
    <glyph glyph-name="Odieresis" unicode="&#xd6;" horiz-adv-x="1300" 
d="M500 1350h100q500 0 500 -600v-200q0 -550 -500 -550h-100q-500 0 -500 550v200q0 600 500 600zM250 700v-100q0 -350 250 -350h100q250 0 250 350v100q0 400 -250 400h-100q-250 0 -250 -400zM349 1701h50q100 0 100 -100l-2 -50q0 -100 -100 -100h-50q-100 0 -100 100
l2 50q0 100 100 100zM750 1701h50q100 0 100 -100l-2 -50q0 -100 -100 -100h-50q-100 0 -100 100l2 50q0 100 100 100z" />
    <glyph glyph-name="multiply" unicode="&#xd7;" horiz-adv-x="1100" 
d="M48 1000q-33 67 -33 111q0 22 8 39q25 50 125 50q50 0 150 -150l152 -173l148 173q100 150 150 150q100 0 116 -50q5 -17 5 -39q0 -44 -21 -111l-248 -300l298 -400q0 -150 -50 -150h-50q-100 0 -150 100l-198 282l-202 -282q-48 -100 -148 -100h-50q-50 0 -50 139v11
l300 400z" />
    <glyph glyph-name="Oslash" unicode="&#xd8;" horiz-adv-x="1300" 
d="M708 1076q-46 24 -108 24h-100q-250 0 -250 -400v-100q0 -86 15 -151zM390 272q47 -22 110 -22h100q250 0 250 350v100q0 113 -20 195zM500 1350h100q500 0 500 -600v-200q0 -550 -500 -550h-100q-500 0 -500 550v200q0 600 500 600z" />
    <glyph glyph-name="Ugrave" unicode="&#xd9;" horiz-adv-x="1200" 
d="M100 1350h50q100 0 100 -100v-750q0 -250 200 -250h100q200 0 200 250v750q0 100 100 100h50q100 0 100 -100v-750q0 -500 -450 -500h-100q-450 0 -450 500v750q0 100 100 100zM400 1750h50q50 0 100 -51l50 -49q50 -50 50 -98v-2q0 -100 -100 -100h-50q-50 0 -100 50
l-50 50q-50 50 -50 100q0 100 100 100z" />
    <glyph glyph-name="Uacute" unicode="&#xda;" horiz-adv-x="1200" 
d="M100 1350h50q100 0 100 -100v-750q0 -250 200 -250h100q200 0 200 250v750q0 100 100 100h50q100 0 100 -100v-750q0 -500 -450 -500h-100q-450 0 -450 500v750q0 100 100 100zM700 1650q0 -50 -50 -100l-49 -50q-50 -50 -100 -50h-50q-100 0 -100 100v2q0 49 49 98
l50 50q50 50 100 50h50q100 0 100 -100z" />
    <glyph glyph-name="Ucircumflex" unicode="&#xdb;" horiz-adv-x="1200" 
d="M100 1350h50q100 0 100 -100v-750q0 -250 200 -250h100q200 0 200 250v750q0 100 100 100h50q100 0 100 -100v-750q0 -500 -450 -500h-100q-450 0 -450 500v750q0 100 100 100zM600 1750l201 -200q-1 -150 -51 -150h-50q-50 0 -150 100l-50 50l-50 -50
q-100 -100 -148 -100h-50q-52 0 -52 150l200 200h200z" />
    <glyph glyph-name="Udieresis" unicode="&#xdc;" horiz-adv-x="1200" 
d="M100 1350h50q100 0 100 -100v-750q0 -250 200 -250h100q200 0 200 250v750q0 100 100 100h50q100 0 100 -100v-750q0 -500 -450 -500h-100q-450 0 -450 500v750q0 100 100 100zM302 1700h50q98 0 98 -96v-54q0 -100 -100 -100h-50q-100 0 -100 100v50q2 100 102 100z
M702 1700h50q98 0 98 -96v-54q0 -100 -100 -100h-50q-100 0 -100 100v50q2 100 102 100z" />
    <glyph glyph-name="Yacute" unicode="&#xdd;" horiz-adv-x="1282" 
d="M50 1150q-33 67 -33 111q0 22 8 39q25 50 125 50q50 0 150 -150l250 -323l250 323q100 150 150 150q100 0 116 -50q5 -17 5 -39q0 -44 -21 -111l-373 -505v-550q0 -99 -100 -99h-50q-100 0 -100 95v554zM749 1650q0 -50 -50 -100l-50 -50q-50 -50 -100 -50h-50
q-100 0 -100 100q0 49 50 100l50 49q50 51 100 51h50q100 0 100 -100z" />
    <glyph glyph-name="Thorn" unicode="&#xde;" 
d="M650 1150q300 0 300 -300v-350q0 -300 -300 -300h-400v-100q0 -100 -100 -100h-50q-100 0 -100 100v1150q0 100 100 100h50q100 0 100 -100v-100h400zM250 450h350q100 0 100 100v250q0 100 -100 100h-350v-450z" />
    <glyph glyph-name="germandbls" unicode="&#xdf;" 
d="M150 0h-50q-100 0 -100 100l2 1250h550q300 0 300 -300v-150q0 -150 -150 -200q200 0 248 -200v-200q0 -300 -300 -300h-100q-100 0 -100 100v50q0 100 100 100h50q100 0 100 100v103q0 97 -148 97q-102 0 -102 100v50q0 100 100 100q52 0 52 100v100q0 100 -100 100
h-250l-2 -1000q0 -100 -100 -100z" />
    <glyph glyph-name="agrave" unicode="&#xe0;" horiz-adv-x="1002" 
d="M842 80q0 -80 -40 -80h-80q-40 0 -80 80l-44 160h-342l-56 -160q-38 -80 -80 -80h-78q-42 0 -42 80l282 920q40 80 80 80h120q40 0 80 -80zM540 440l-98 360h-40l-95 -360h233zM361 1400h40q40 0 79 -41l40 -39q40 -40 40 -78v-2q0 -80 -80 -80h-40q-40 0 -80 40l-39 40
q-40 40 -40 80q0 80 80 80z" />
    <glyph glyph-name="aacute" unicode="&#xe1;" horiz-adv-x="1002" 
d="M842 80q0 -80 -40 -80h-80q-40 0 -80 80l-44 160h-342l-56 -160q-38 -80 -80 -80h-78q-42 0 -42 80l282 920q40 80 80 80h120q40 0 80 -80zM540 440l-98 360h-40l-95 -360h233zM599 1320q0 -40 -40 -80l-40 -40q-40 -40 -80 -40h-40q-80 0 -80 80q0 39 40 80l40 39
q40 41 80 41h40q80 0 80 -80z" />
    <glyph glyph-name="acircumflex" unicode="&#xe2;" horiz-adv-x="1002" 
d="M842 80q0 -80 -40 -80h-80q-40 0 -80 80l-44 160h-342l-56 -160q-38 -80 -80 -80h-78q-42 0 -42 80l282 920q40 80 80 80h120q40 0 80 -80zM540 440l-98 360h-40l-95 -360h233zM498 1400l161 -160q-1 -120 -41 -120h-40q-40 0 -120 80l-40 40l-40 -40q-80 -80 -118 -80
h-40q-42 0 -42 120l160 160h160z" />
    <glyph glyph-name="atilde" unicode="&#xe3;" horiz-adv-x="1002" 
d="M842 80q0 -80 -40 -80h-80q-40 0 -80 80l-44 160h-342l-56 -160q-38 -80 -80 -80h-78q-42 0 -42 80l282 920q40 80 80 80h120q40 0 80 -80zM540 440l-98 360h-40l-95 -360h233zM521 1320q0 81 80 81h40q80 0 80 -81l-1 -40q0 -120 -120 -120q-80 0 -280 80q0 -80 -80 -80
h-40q-80 0 -80 80l1 40q0 119 120 120q120 0 280 -80z" />
    <glyph glyph-name="adieresis" unicode="&#xe4;" horiz-adv-x="1002" 
d="M842 80q0 -80 -40 -80h-80q-40 0 -80 80l-44 160h-342l-56 -160q-38 -80 -80 -80h-78q-42 0 -42 80l282 920q40 80 80 80h120q40 0 80 -80zM540 440l-98 360h-40l-95 -360h233zM242 1360h40q80 0 80 -80l-2 -40q0 -80 -80 -80h-40q-80 0 -80 80l2 40q0 80 80 80z
M562 1360h40q80 0 80 -80l-2 -40q0 -80 -80 -80h-40q-80 0 -80 80l2 40q0 80 80 80z" />
    <glyph glyph-name="aring" unicode="&#xe5;" horiz-adv-x="1002" 
d="M842 80q0 -80 -40 -80h-80q-40 0 -80 80l-44 160h-342l-56 -160q-38 -80 -80 -80h-78q-42 0 -42 80l282 920q40 80 80 80h120q40 0 80 -80zM540 440l-98 360h-40l-95 -360h233zM401 1360h40q80 0 80 -80l-1 -40q-1 -80 -81 -80h-40q-80 0 -80 80l1 40q1 80 81 80z" />
    <glyph glyph-name="ae" unicode="&#xe6;" horiz-adv-x="1440" 
d="M520 440v73l-80 287h-38l-95 -360h213zM1200 1080q80 0 80 -80v-40q0 -80 -80 -80h-480v-240h280q80 0 80 -80v-40q0 -80 -80 -80h-280v-240h480q80 0 80 -80v-40q0 -80 -80 -80h-680v240h-264l-56 -160q-38 -80 -80 -80h-78q-42 0 -42 80l282 920q40 80 80 80h838z" />
    <glyph glyph-name="ccedilla" unicode="&#xe7;" horiz-adv-x="1000" 
d="M520 3v-123q0 -160 -160 -160h-80q-80 0 -80 80v40q0 80 80 80q40 0 40 40v45q-320 41 -320 435v160q0 480 400 480h40q400 0 400 -320q0 -80 -80 -80h-40q-80 0 -80 80q0 120 -200 120h-40q-200 0 -200 -320v-80q0 -280 200 -280h40q200 0 200 120q0 80 80 80h40
q80 0 80 -80q0 -286 -320 -317z" />
    <glyph glyph-name="egrave" unicode="&#xe8;" horiz-adv-x="920" 
d="M760 1000v-40q0 -80 -80 -80h-480v-240h280q80 0 80 -80v-40q0 -80 -80 -80h-282l2 -240h480q80 0 80 -80v-40q0 -80 -80 -80h-680v1080h680q80 0 80 -80zM320 1400h40q40 0 80 -41l40 -39q40 -40 40 -78v-2q0 -80 -80 -80h-40q-40 0 -80 40l-40 40q-40 40 -40 80
q0 80 80 80z" />
    <glyph glyph-name="eacute" unicode="&#xe9;" horiz-adv-x="920" 
d="M560 1320q0 -40 -40 -80l-39 -40q-40 -40 -80 -40h-40q-80 0 -80 80v2q0 39 39 78l40 40q40 40 80 40h40q80 0 80 -80zM760 1000v-40q0 -80 -80 -80h-480v-240h280q80 0 80 -80v-40q0 -80 -80 -80h-282l2 -240h480q80 0 80 -80v-40q0 -80 -80 -80h-680v1080h680
q80 0 80 -80z" />
    <glyph glyph-name="ecircumflex" unicode="&#xea;" horiz-adv-x="920" 
d="M760 1000v-40q0 -80 -80 -80h-480v-240h280q80 0 80 -80v-40q0 -80 -80 -80h-282l2 -240h480q80 0 80 -80v-40q0 -80 -80 -80h-680v1080h680q80 0 80 -80zM480 1400l161 -160q-1 -120 -41 -120h-40q-40 0 -120 80l-40 40l-40 -40q-80 -80 -118 -80h-40q-42 0 -42 120
l160 160h160z" />
    <glyph glyph-name="edieresis" unicode="&#xeb;" horiz-adv-x="920" 
d="M760 1000v-40q0 -80 -80 -80h-480v-240h280q80 0 80 -80v-40q0 -80 -80 -80h-282l2 -240h480q80 0 80 -80v-40q0 -80 -80 -80h-680v1080h680q80 0 80 -80zM202 1360h40q78 0 78 -77v-43q0 -80 -80 -80h-40q-80 0 -80 80v40q2 80 82 80zM522 1360h40q78 0 78 -77v-43
q0 -80 -80 -80h-40q-80 0 -80 80v40q2 80 82 80z" />
    <glyph glyph-name="igrave" unicode="&#xec;" horiz-adv-x="362" 
d="M82 1080h40q80 0 80 -80l-2 -920q0 -80 -80 -80h-40q-80 0 -80 80l2 920q0 80 80 80zM40 1400h40q40 0 79 -41l40 -39q40 -40 40 -78v-2q0 -80 -80 -80h-40q-40 0 -80 40l-39 40q-40 40 -40 80q0 80 80 80z" />
    <glyph glyph-name="iacute" unicode="&#xed;" horiz-adv-x="362" 
d="M82 1080h40q80 0 80 -80l-2 -920q0 -80 -80 -80h-40q-80 0 -80 80l2 920q0 80 80 80zM240 1320q0 -40 -40 -80l-40 -40q-40 -40 -80 -40h-40q-80 0 -80 80q0 39 40 80l40 39q40 41 80 41h40q80 0 80 -80z" />
    <glyph glyph-name="icircumflex" unicode="&#xee;" horiz-adv-x="362" 
d="M82 1080h40q80 0 80 -80l-2 -920q0 -80 -80 -80h-40q-80 0 -80 80l2 920q0 80 80 80zM180 1400l161 -160q-1 -120 -41 -120h-40q-40 0 -120 80l-40 40l-40 -40q-80 -80 -118 -80h-40q-42 0 -42 120l160 160h160z" />
    <glyph glyph-name="idieresis" unicode="&#xef;" horiz-adv-x="361" 
d="M81 1080h40q80 0 80 -80l-1 -920q0 -80 -80 -80h-40q-80 0 -80 80l1 920q0 80 80 80zM-80 1360h40q80 0 80 -80l-2 -40q0 -80 -80 -80h-40q-80 0 -80 80l2 40q0 80 80 80zM240 1360h40q80 0 80 -80l-2 -40q0 -80 -80 -80h-40q-80 0 -80 80l2 40q0 80 80 80z" />
    <glyph glyph-name="eth" unicode="&#xf0;" horiz-adv-x="1120" 
d="M359 440l1 -240h80q320 0 320 280v120q0 280 -320 280h-82l1 -240h239q80 0 80 -80v-40q0 -80 -80 -80h-239zM158 640v440h282q518 0 520 -480v-120q0 -480 -520 -480h-280l-2 80v360h-80q-80 0 -80 80v40q0 80 80 80h80z" />
    <glyph glyph-name="ntilde" unicode="&#xf1;" horiz-adv-x="1002" 
d="M2 1080h240l400 -760v680q0 80 80 80h40q80 0 80 -80v-1000h-240l-400 760l-2 -680q0 -80 -80 -80h-40q-80 0 -80 80zM521 1320q0 81 80 81h40q80 0 80 -81l-1 -40q0 -120 -120 -120q-80 0 -280 80q0 -80 -80 -80h-40q-80 0 -80 80l1 40q0 119 120 120q120 0 280 -80z
" />
    <glyph glyph-name="ograve" unicode="&#xf2;" horiz-adv-x="1040" 
d="M400 1080h80q400 0 400 -480v-160q0 -440 -400 -440h-80q-400 0 -400 440v160q0 480 400 480zM200 560v-80q0 -280 200 -280h80q200 0 200 280v80q0 320 -200 320h-80q-200 0 -200 -320zM401 1399h40q40 0 79 -40l41 -40q39 -39 39 -78v-2q0 -80 -80 -80h-40
q-40 0 -80 40l-39 40q-40 40 -40 80q0 80 80 80z" />
    <glyph glyph-name="oacute" unicode="&#xf3;" horiz-adv-x="1040" 
d="M400 1080h80q400 0 400 -480v-160q0 -440 -400 -440h-80q-400 0 -400 440v160q0 480 400 480zM200 560v-80q0 -280 200 -280h80q200 0 200 280v80q0 320 -200 320h-80q-200 0 -200 -320zM599 1320q0 -40 -40 -80l-40 -40q-40 -40 -80 -40h-40q-80 0 -80 80q0 39 40 80
l40 39q40 41 80 41h40q80 0 80 -80z" />
    <glyph glyph-name="ocircumflex" unicode="&#xf4;" horiz-adv-x="1040" 
d="M400 1080h80q400 0 400 -480v-160q0 -440 -400 -440h-80q-400 0 -400 440v160q0 480 400 480zM200 560v-80q0 -280 200 -280h80q200 0 200 280v80q0 320 -200 320h-80q-200 0 -200 -320zM520 1400l160 -160q0 -120 -40 -120h-40q-40 0 -120 80l-40 40l-40 -40
q-80 -80 -118 -80h-40q-42 0 -42 120l160 160h160z" />
    <glyph glyph-name="otilde" unicode="&#xf5;" horiz-adv-x="1040" 
d="M400 1080h80q400 0 400 -480v-160q0 -440 -400 -440h-80q-400 0 -400 440v160q0 480 400 480zM200 560v-80q0 -280 200 -280h80q200 0 200 280v80q0 320 -200 320h-80q-200 0 -200 -320zM541 1320q0 81 80 81h40q80 0 80 -81l-1 -40q0 -120 -120 -120q-80 0 -280 80
q0 -80 -80 -80h-40q-80 0 -80 80l1 40q0 119 120 120q120 0 280 -80z" />
    <glyph glyph-name="odieresis" unicode="&#xf6;" horiz-adv-x="1040" 
d="M400 1080h80q400 0 400 -480v-160q0 -440 -400 -440h-80q-400 0 -400 440v160q0 480 400 480zM200 560v-80q0 -280 200 -280h80q200 0 200 280v80q0 320 -200 320h-80q-200 0 -200 -320zM279 1361h40q80 0 80 -80l-1 -40q0 -80 -80 -80h-40q-80 0 -80 80l1 40q0 80 80 80
zM600 1361h40q80 0 80 -80l-2 -40q0 -80 -80 -80h-40q-80 0 -80 80l2 40q0 80 80 80z" />
    <glyph glyph-name="divide" unicode="&#xf7;" horiz-adv-x="1050" 
d="M0 650v50q0 100 100 100h650q100 0 100 -100v-50q0 -100 -100 -100h-650q-100 0 -100 100zM407 1100h40q78 0 78 -77v-43q0 -80 -80 -80h-40q-80 0 -80 80v40q2 80 82 80zM407 450h40q78 0 78 -77v-43q0 -80 -80 -80h-40q-80 0 -80 80v40q2 80 82 80z" />
    <glyph glyph-name="oslash" unicode="&#xf8;" horiz-adv-x="1040" 
d="M566 861q-37 19 -86 19h-80q-200 0 -200 -320v-80q0 -69 12 -121zM312 218q38 -18 88 -18h80q200 0 200 280v80q0 91 -16 156zM400 1080h80q400 0 400 -480v-160q0 -440 -400 -440h-80q-400 0 -400 440v160q0 480 400 480z" />
    <glyph glyph-name="ugrave" unicode="&#xf9;" horiz-adv-x="960" 
d="M80 1080h40q80 0 80 -80v-600q0 -200 160 -200h80q160 0 160 200v600q0 80 80 80h40q80 0 80 -80v-600q0 -400 -360 -400h-80q-360 0 -360 400v600q0 80 80 80zM320 1400h40q40 0 80 -41l40 -39q40 -40 40 -78v-2q0 -80 -80 -80h-40q-40 0 -80 40l-40 40q-40 40 -40 80
q0 80 80 80z" />
    <glyph glyph-name="uacute" unicode="&#xfa;" horiz-adv-x="960" 
d="M80 1080h40q80 0 80 -80v-600q0 -200 160 -200h80q160 0 160 200v600q0 80 80 80h40q80 0 80 -80v-600q0 -400 -360 -400h-80q-360 0 -360 400v600q0 80 80 80zM560 1320q0 -40 -40 -80l-39 -40q-40 -40 -80 -40h-40q-80 0 -80 80v2q0 39 39 78l40 40q40 40 80 40h40
q80 0 80 -80z" />
    <glyph glyph-name="ucircumflex" unicode="&#xfb;" horiz-adv-x="960" 
d="M80 1080h40q80 0 80 -80v-600q0 -200 160 -200h80q160 0 160 200v600q0 80 80 80h40q80 0 80 -80v-600q0 -400 -360 -400h-80q-360 0 -360 400v600q0 80 80 80zM480 1400l161 -160q-1 -120 -41 -120h-40q-40 0 -120 80l-40 40l-40 -40q-80 -80 -118 -80h-40
q-42 0 -42 120l160 160h160z" />
    <glyph glyph-name="udieresis" unicode="&#xfc;" horiz-adv-x="960" 
d="M80 1080h40q80 0 80 -80v-600q0 -200 160 -200h80q160 0 160 200v600q0 80 80 80h40q80 0 80 -80v-600q0 -400 -360 -400h-80q-360 0 -360 400v600q0 80 80 80zM242 1360h40q78 0 78 -77v-43q0 -80 -80 -80h-40q-80 0 -80 80v40q2 80 82 80zM562 1360h40q78 0 78 -77v-43
q0 -80 -80 -80h-40q-80 0 -80 80v40q2 80 82 80z" />
    <glyph glyph-name="yacute" unicode="&#xfd;" horiz-adv-x="1026" 
d="M40 920q-26 54 -26 89q0 17 6 31q20 40 100 40q40 0 120 -120l200 -258l200 258q80 120 120 120q80 0 93 -40q4 -14 4 -31q0 -35 -17 -89l-298 -404v-440q0 -79 -80 -79h-40q-80 0 -80 76v443zM600 1320q0 -40 -40 -80l-40 -40q-40 -40 -80 -40h-40q-80 0 -80 80
q0 39 40 80l40 39q40 41 80 41h40q80 0 80 -80z" />
    <glyph glyph-name="thorn" unicode="&#xfe;" horiz-adv-x="920" 
d="M520 920q240 0 240 -240v-280q0 -240 -240 -240h-320v-80q0 -80 -80 -80h-40q-80 0 -80 80v920q0 80 80 80h40q80 0 80 -80v-80h320zM200 360h280q80 0 80 80v200q0 80 -80 80h-280v-360z" />
    <glyph glyph-name="ydieresis" unicode="&#xff;" horiz-adv-x="1026" 
d="M40 920q-26 54 -26 89q0 17 6 31q20 40 100 40q40 0 120 -120l200 -258l200 258q80 120 120 120q80 0 93 -40q4 -14 4 -31q0 -35 -17 -89l-298 -404v-440q0 -79 -80 -79h-40q-80 0 -80 76v443zM282 1360h40q80 0 80 -80l-2 -40q0 -80 -80 -80h-40q-80 0 -80 80l2 40
q0 80 80 80zM602 1360h40q80 0 80 -80l-2 -40q0 -80 -80 -80h-40q-80 0 -80 80l2 40q0 80 80 80z" />
    <glyph glyph-name="dotlessi" unicode="&#x131;" horiz-adv-x="514" 
d="M328 223q0 -173 100 -173h46v-50h-442v50h46q100 0 100 173v432q0 77 -111 77h-48v44q222 69 261 182h48v-735z" />
    <glyph glyph-name="circumflex" unicode="&#x2c6;" horiz-adv-x="800" 
d="M400 1749l200 -200q0 -149 -50 -149h-51q-50 0 -149 100l-50 49l-50 -50q-100 -100 -148 -100h-50q-52 0 -52 150l200 201z" />
    <glyph glyph-name="caron" unicode="&#x2c7;" horiz-adv-x="800" 
d="M200 1399l-200 201q0 150 52 150h50q48 0 148 -100l50 -50l50 49q99 100 149 100h51q50 0 50 -149l-200 -200z" />
    <glyph glyph-name="uni02C9" unicode="&#x2c9;" horiz-adv-x="1024" 
d="M254 1195v125h516v-125h-516z" />
    <glyph glyph-name="breve" unicode="&#x2d8;" horiz-adv-x="1024" 
d="M219 1349h51q17 -73 75 -107t167 -34t166 33.5t74 107.5h51q-20 -133 -94 -201.5t-197 -68.5q-122 0 -197 69t-96 201z" />
    <glyph glyph-name="dotaccent" unicode="&#x2d9;" horiz-adv-x="1024" 
d="M422 1289l69 72q6 6 13 9t14 3q6 0 12.5 -3t12.5 -9l71 -76q5 -4 7 -10t2 -14q-1 -9 -3 -15t-8 -12l-71 -76q-12 -11 -16 -13.5t-7 -2.5q-10 0 -16.5 2.5t-10.5 8.5l-75 87q-4 4 -6 9.5t-2 13.5q0 6 3 12.5t11 13.5z" />
    <glyph glyph-name="ring" unicode="&#x2da;" horiz-adv-x="1024" 
d="M411 1257q0 -42 29 -71t71 -29t71 29t29 71q0 40 -29.5 69.5t-70.5 29.5t-70.5 -29.5t-29.5 -69.5zM335 1257q0 75 51 126t125 51q76 0 127.5 -51.5t51.5 -125.5q0 -75 -51.5 -126.5t-127.5 -51.5q-74 0 -125 51.5t-51 126.5z" />
    <glyph glyph-name="ogonek" unicode="&#x2db;" horiz-adv-x="600" 
d="M100 100h50q100 0 100 -94v-56q0 -50 50 -50q100 0 100 -100v-50q0 -100 -100 -100h-100q-200 0 -200 200v154q0 96 100 96z" />
    <glyph glyph-name="tilde" unicode="&#x2dc;" horiz-adv-x="950" 
d="M501 1650q0 101 100 101h50q100 0 100 -101l-1 -50q0 -150 -150 -150q-100 0 -350 100q0 -100 -100 -100h-50q-100 0 -100 100l1 50q0 149 150 150q150 0 350 -100z" />
    <glyph glyph-name="hungarumlaut" unicode="&#x2dd;" horiz-adv-x="1000" 
d="M349 1650q0 -50 -50 -100l-49 -50q-50 -50 -100 -50h-50q-100 0 -100 100v2q0 49 49 98l50 50q50 50 100 50h50q100 0 100 -100zM799 1650q0 -50 -50 -100l-49 -50q-50 -50 -100 -50h-50q-100 0 -100 100v2q0 49 49 98l50 50q50 50 100 50h50q100 0 100 -100z" />
    <glyph glyph-name="endash" unicode="&#x2013;" horiz-adv-x="1050" 
d="M0 650v50q0 100 100 100h650q100 0 100 -100v-50q0 -100 -100 -100h-650q-100 0 -100 100z" />
    <glyph glyph-name="emdash" unicode="&#x2014;" horiz-adv-x="1250" 
d="M0 650v50q0 100 100 100h850q100 0 100 -100v-50q0 -100 -100 -100h-850q-100 0 -100 100z" />
    <glyph glyph-name="quoteleft" unicode="&#x2018;" horiz-adv-x="450" 
d="M150 950h-50q-100 0 -100 100v200q0 100 100 100h50v-100q0 -100 100 -100v-100q0 -100 -100 -100z" />
    <glyph glyph-name="quoteright" unicode="&#x2019;" horiz-adv-x="450" 
d="M100 1350h50q100 0 100 -100v-200q0 -100 -100 -100h-50v100q0 100 -100 100v100q0 100 100 100z" />
    <glyph glyph-name="quotesinglbase" unicode="&#x201a;" horiz-adv-x="450" 
d="M100 250h50q100 0 100 -100v-200q0 -100 -100 -100h-50v100q0 100 -100 100v100q0 100 100 100z" />
    <glyph glyph-name="quotedblleft" unicode="&#x201c;" horiz-adv-x="850" 
d="M550 950h-50q-100 0 -100 100v200q0 100 100 100h50v-100q0 -100 100 -100v-100q0 -100 -100 -100zM150 950h-50q-100 0 -100 100v200q0 100 100 100h50v-100q0 -100 100 -100v-100q0 -100 -100 -100z" />
    <glyph glyph-name="quotedblright" unicode="&#x201d;" horiz-adv-x="850" 
d="M100 1350h50q100 0 100 -100v-200q0 -100 -100 -100h-50v100q0 100 -100 100v100q0 100 100 100zM500 1350h50q100 0 100 -100v-200q0 -100 -100 -100h-50v100q0 100 -100 100v100q0 100 100 100z" />
    <glyph glyph-name="quotedblbase" unicode="&#x201e;" horiz-adv-x="850" 
d="M100 250h50q100 0 100 -100v-200q0 -100 -100 -100h-50v100q0 100 -100 100v100q0 100 100 100zM500 250h50q100 0 100 -100v-200q0 -100 -100 -100h-50v100q0 100 -100 100v100q0 100 100 100z" />
    <glyph glyph-name="dagger" unicode="&#x2020;" horiz-adv-x="1014" 
d="M486 1022q-8 97 -54 178q-57 101 -57 129q0 49 36 78.5t96 29.5q57 0 94.5 -27.5t37.5 -71.5q0 -32 -55 -137q-46 -85 -55 -179q96 8 177 54q101 57 129 57q49 0 79 -36t30 -96q0 -57 -27.5 -94.5t-72.5 -37.5q-32 0 -136 55q-85 46 -179 57q8 -176 110 -277
q-106 -460 -112 -974h-38q-6 514 -114 974q102 101 111 277q-96 -10 -178 -55q-101 -57 -129 -57q-49 0 -78.5 36t-29.5 96q0 57 27.5 94.5t71.5 37.5q32 0 137 -56q85 -46 179 -55z" />
    <glyph glyph-name="daggerdbl" unicode="&#x2021;" horiz-adv-x="1014" 
d="M528 186q94 11 179 57q104 55 136 55q45 0 72.5 -37.5t27.5 -94.5q0 -60 -30 -96t-79 -36q-28 0 -129 57q-81 46 -177 54q9 -94 55 -179q55 -105 55 -137q0 -44 -37.5 -71.5t-94.5 -27.5q-60 0 -96 29.5t-36 78.5q0 28 57 129q46 81 54 178q-94 -9 -179 -55
q-105 -56 -137 -56q-44 0 -71.5 37.5t-27.5 94.5q0 60 29.5 96t78.5 36q28 0 129 -57q82 -45 178 -55q-9 226 -111 398q102 171 111 397q-96 -10 -178 -55q-101 -57 -129 -57q-49 0 -78.5 36t-29.5 96q0 57 27.5 94.5t71.5 37.5q32 0 137 -56q85 -46 179 -55q-8 97 -54 178
q-57 101 -57 129q0 49 36 78.5t96 29.5q57 0 94.5 -27.5t37.5 -71.5q0 -32 -55 -137q-46 -85 -55 -179q96 8 177 54q101 57 129 57q49 0 79 -36t30 -96q0 -57 -27.5 -94.5t-72.5 -37.5q-32 0 -136 55q-85 46 -179 57q8 -226 110 -397q-102 -172 -110 -398z" />
    <glyph glyph-name="bullet" unicode="&#x2022;" horiz-adv-x="1024" 
d="M216 718q0 123 87 209t210 86q122 0 208.5 -86.5t86.5 -208.5t-87.5 -209.5t-209.5 -87.5q-123 0 -209 87t-86 210z" />
    <glyph glyph-name="ellipsis" unicode="&#x2026;" 
d="M102 250h50q100 0 100 -100l-2 -50q0 -100 -100 -100h-50q-100 0 -100 100l2 50q0 100 100 100zM452 250h50q100 0 100 -100l-2 -50q0 -100 -100 -100h-50q-100 0 -100 100l2 50q0 100 100 100zM802 250h50q100 0 100 -100l-2 -50q0 -100 -100 -100h-50q-100 0 -100 100
l2 50q0 100 100 100z" />
    <glyph glyph-name="guilsinglleft" unicode="&#x2039;" horiz-adv-x="631" 
d="M174 479l342 303h14v-37l-205 -266l205 -266v-37h-14z" />
    <glyph glyph-name="guilsinglright" unicode="&#x203a;" horiz-adv-x="631" 
d="M115 176h-14v37l205 266l-205 266v37h14l342 -303z" />
    <glyph glyph-name="fraction" unicode="&#x2044;" horiz-adv-x="1250" 
d="M800 1250q50 100 150 100h50q50 0 50 -100l-800 -1150q-50 -100 -150 -100h-50q-50 0 -50 100z" />
    <glyph glyph-name="fraction" unicode="&#x2215;" horiz-adv-x="1250" 
d="M800 1250q50 100 150 100h50q50 0 50 -100l-800 -1150q-50 -100 -150 -100h-50q-50 0 -50 100z" />
    <glyph glyph-name="franc" unicode="&#x20a3;" 
d="M200 400v950h650q100 0 100 -100v-50q0 -100 -100 -100h-400v-300h400q100 0 100 -100v-50q0 -100 -100 -100h-402l1 -150h101q100 0 100 -100v-50q0 -100 -100 -100h-100v-50q0 -100 -100 -100h-50q-100 0 -100 100v50h-100q-100 0 -100 100v50q0 100 100 100h100z" />
    <glyph glyph-name="lira" unicode="&#x20a4;" 
d="M454 800h146q100 0 100 -100v-50q0 -100 -100 -100h-152l2 -300h400q100 0 100 -100v-50q0 -100 -100 -100h-750q-100 0 -100 100v50q0 100 100 100h100v300h-100q-100 0 -100 100v50q0 100 100 100h101q20 550 499 550h150q100 0 100 -100v-50q0 -100 -100 -100h-150
q-217 0 -246 -300z" />
    <glyph glyph-name="peseta" unicode="&#x20a7;" 
d="M450 800h150q100 0 100 100v100q0 100 -100 100h-150v-300zM200 400v950h450q300 0 300 -300v-200q0 -300 -300 -300h-200v-150h100q100 0 100 -100v-50q0 -100 -100 -100h-100v-50q0 -100 -100 -100h-50q-100 0 -100 100v50h-100q-100 0 -100 100v50q0 100 100 100h100z
" />
    <glyph glyph-name="Euro" unicode="&#x20ac;" horiz-adv-x="1300" 
d="M380 400q56 -150 220 -150q250 0 250 150q0 100 100 100h50q100 0 100 -100q0 -400 -500 -400q-426 0 -489 400h-11q-100 0 -100 100v50q0 100 100 100v100q-100 0 -100 100v50q0 100 100 100h28q90 350 472 350q500 0 500 -400q0 -100 -100 -100h-50q-100 0 -100 100
q0 150 -250 150q-125 0 -187 -100h187q100 0 100 -100v-50q0 -100 -100 -100h-249q-1 -24 -1 -50v-50h250q100 0 100 -100v-50q0 -100 -100 -100h-220z" />
    <glyph glyph-name="afii61352" unicode="&#x2116;" horiz-adv-x="450" 
 />
    <glyph glyph-name="trademark" unicode="&#x2122;" horiz-adv-x="450" 
 />
    <glyph glyph-name="partialdiff" unicode="&#x2202;" horiz-adv-x="1014" 
d="M232 537q0 -41 5 -79q14 -122 61.5 -230t118.5 -165q64 -53 128 -53q6 0 13 1q70 5 127.5 70.5t80.5 179.5q16 73 16 149q0 42 -5 85q-14 122 -62.5 231.5t-119.5 165.5q-65 50 -128 50h-11q-68 -5 -126 -69.5t-82 -178.5q-16 -84 -16 -157zM937 477q0 -132 -56.5 -251
t-159 -185t-214.5 -66t-214.5 66t-159 185t-56.5 251q0 131 58 251t161 185t211 65q109 0 212 -65q29 -18 54 -41q-84 235 -233.5 377t-326.5 155v55q306 0 515 -285t209 -697z" />
    <glyph glyph-name="Delta" unicode="&#x2206;" horiz-adv-x="1081" 
d="M514 1195l-406 -1072h801zM547 1434l526 -1434h-1067z" />
    <glyph glyph-name="product" unicode="&#x220f;" horiz-adv-x="1515" 
d="M511 1384q-102 0 -102 -235v-1281q0 -235 102 -235h97v-51h-560v51h96q103 0 103 235v1281q0 235 -103 235h-96v50h1419v-50h-97q-102 0 -102 -235v-1281q0 -235 102 -235h97v-50h-560v50h96q103 0 103 235v1281q0 235 -103 235h-492z" />
    <glyph glyph-name="summation" unicode="&#x2211;" horiz-adv-x="1206" 
d="M1059 548l-788 -914h635q130 0 189 182h49l-103 -232h-921v50q62 0 106 53l663 781l-663 859q-44 57 -106 57v50h921l103 -232h-49q-59 182 -189 182h-485z" />
    <glyph glyph-name="minus" unicode="&#x2212;" horiz-adv-x="1014" 
d="M87 647v140h839l1 -1v-139h-840z" />
    <glyph glyph-name="radical" unicode="&#x221a;" horiz-adv-x="1014" 
d="M181 0l-164 359l74 35l85 -185l728 1470h150v-60h-72z" />
    <glyph glyph-name="infinity" unicode="&#x221e;" horiz-adv-x="1014" 
d="M439 755q-15 103 -74 133q-46 22 -84 22q-12 0 -23 -2q-49 -10 -92.5 -44.5t-65.5 -84.5q-20 -46 -20 -90v-8q2 -48 27.5 -89t71.5 -58q29 -11 61 -11q16 0 33 3q47 10 90.5 43.5t75.5 185.5zM466 687q12 -96 94 -153q69 -48 123 -48q11 0 21 2q62 12 117.5 52t84.5 101
q26 54 26 108v11q-2 60 -35.5 108.5t-91.5 68.5q-37 13 -76 13q-22 0 -44 -4q-67 -9 -127 -62t-92 -197zM450 827q9 35 21 69q34 88 95 137t128 49t128 -48t95 -135t34 -182t-34 -182t-95 -135t-128 -48t-128 49t-95 136q-12 35 -21 70q-5 -21 -12 -41q-27 -73 -74 -113
t-99 -40t-100 41t-73.5 113.5t-25.5 149.5q0 76 25.5 149t73.5 114t100 41t99 -40t74 -112q7 -21 12 -42z" />
    <glyph glyph-name="integral" unicode="&#x222b;" horiz-adv-x="665" 
d="M-12 -281q-60 0 -60 29v159h36q1 -43 34.5 -64.5t63.5 -21.5h1q82 0 115 162q32 162 40 316l70 734l8 62q27 238 135 429.5t234 191.5q60 0 60 -29v-159h-36q-1 43 -35 64.5t-63 21.5q-71 0 -116 -155.5t-49 -363.5l-73 -767q-20 -231 -130.5 -420t-234.5 -189z" />
    <glyph glyph-name="approxequal" unicode="&#x2248;" horiz-adv-x="1014" 
d="M923 1053v-156q-63 -72 -122 -97.5t-116 -25.5q-60 0 -177.5 48.5t-176.5 48.5q-51 0 -107.5 -28t-129.5 -112v156q64 73 123 99t114 26q64 0 181.5 -49.5t172.5 -49.5q52 0 108.5 28t129.5 112zM923 705v-156q-63 -72 -122 -97.5t-116 -25.5q-60 0 -177.5 48.5
t-176.5 48.5q-51 0 -107.5 -28t-129.5 -112v156q64 73 123 99t114 26q64 0 181.5 -49.5t172.5 -49.5q52 0 108.5 28t129.5 112z" />
    <glyph glyph-name="lessequal" unicode="&#x2264;" horiz-adv-x="1014" 
d="M927 1074l-625 -359l625 -355v-167l-840 481v83l840 484v-167zM87 1v140h839l1 -1v-139h-840z" />
    <glyph glyph-name="greaterequal" unicode="&#x2265;" horiz-adv-x="1014" 
d="M87 1241l840 -484v-83l-840 -481v167l625 355l-625 359v167zM87 2v140h839l1 -1v-139h-840z" />
    <glyph glyph-name="uniF001" unicode="&#xf001;" horiz-adv-x="1073" 
 />
    <glyph glyph-name="uniF001" unicode="&#xfb01;" horiz-adv-x="1073" 
 />
    <glyph glyph-name="uniF002" unicode="&#xf002;" horiz-adv-x="1081" 
 />
    <glyph glyph-name="uniF002" unicode="&#xfb02;" horiz-adv-x="1081" 
 />
  </font>
</defs>
</svg>
