<?xml version="1.0" standalone="no"?>
<!DOCTYPE svg PUBLIC "-//W3C//DTD SVG 1.1//EN" "http://www.w3.org/Graphics/SVG/1.1/DTD/svg11.dtd" >
<svg>
<metadata>
Created by FontForge 20090914 at Fri Feb 24 16:42:02 2012
 By root
Copyright (c) SIL International (http://www.sil.org/), 1998-2009. All rights reserved.

</metadata>
<defs>
<font id="ApparatusSIL" horiz-adv-x="422" >
  <font-face 
    font-family="Apparatus SIL"
    font-weight="400"
    font-stretch="normal"
    units-per-em="1000"
    panose-1="0 0 4 0 0 0 0 0 0 0"
    ascent="800"
    descent="-200"
    x-height="482"
    cap-height="671"
    bbox="-108 -236 969 838"
    underline-thickness="30"
    underline-position="-38"
    unicode-range="U+0020-U+1D52D"
  />
<missing-glyph horiz-adv-x="500" 
d="M63 0v764h375v-764h-375zM125 63h250v639h-250v-639z" />
    <glyph glyph-name=".notdef" horiz-adv-x="500" 
d="M63 0v764h375v-764h-375zM125 63h250v639h-250v-639z" />
    <glyph glyph-name=".null" horiz-adv-x="0" 
 />
    <glyph glyph-name="glyph2" horiz-adv-x="293" 
 />
    <glyph glyph-name="space" unicode=" " horiz-adv-x="293" 
 />
    <glyph glyph-name="exclam" unicode="!" horiz-adv-x="338" 
d="M230 606l-36 -428h-49l-36 428q-7 78 60 78q68 0 61 -78zM231 54q0 -25 -18 -43.5t-44 -18.5q-25 0 -43 18t-18 44t18 43.5t43 17.5q26 0 44 -18t18 -43z" />
    <glyph glyph-name="quotedbl" unicode="&#x22;" horiz-adv-x="333" 
d="M290 665l-35 -244h-16l-34 244q0 49 42 49q43 0 43 -49zM128 665l-34 -244h-16l-35 244q0 49 43 49q42 0 42 -49z" />
    <glyph glyph-name="numbersign" unicode="#" horiz-adv-x="743" 
d="M682 421h-157l-48 -143h161v-50h-178l-85 -251l-50 16l79 235h-145l-85 -251l-50 17l80 234h-142v50h158l49 143h-161v51h178l80 236l51 -16l-76 -220h146l79 236l52 -16l-76 -220h140v-51zM469 421h-145l-48 -143h145z" />
    <glyph glyph-name="dollar" unicode="$" horiz-adv-x="563" 
d="M507 190q0 -83 -75 -140q-62 -46 -125 -50v-103h-46v103q-71 4 -94 7q-64 6 -108 19v170h51l18 -112q29 -35 133 -35v253q-186 43 -186 182q0 82 64 133q50 40 123 51v75h46v-72q80 0 170 -23v-158h-51l-16 106q-23 26 -103 26v-238q95 -28 132 -55q67 -49 67 -139z
M262 397v221q-94 -20 -94 -114q0 -73 94 -107zM415 171q0 85 -108 119v-237q108 19 108 118z" />
    <glyph glyph-name="percent" unicode="%" horiz-adv-x="861" 
d="M830 198q0 -93 -38 -150q-41 -60 -116 -60t-116 60q-38 57 -38 150t39.5 151.5t114.5 58.5t116 -60q38 -57 38 -150zM753 198q0 172 -77 172q-78 0 -78 -172t78 -172q77 0 77 172zM674 671l-424 -671h-63l425 671h62zM339 474q0 -93 -38 -150q-41 -60 -115 -60
q-75 0 -116 60q-38 57 -38 150t39.5 151.5t114.5 58.5q74 0 115 -60q38 -57 38 -150zM262 474q0 172 -76 172q-79 0 -79 -172t79 -172q76 0 76 172z" />
    <glyph glyph-name="ampersand" unicode="&#x26;" horiz-adv-x="713" 
d="M693 0h-184v24l-45 50q-53 -42 -86 -58q-55 -28 -117 -28q-87 0 -147.5 56.5t-60.5 141.5q0 120 134 176q-84 84 -84 153q0 74 54 121.5t136 47.5q76 0 126 -43t50 -108q0 -66 -46 -112q-33 -32 -101 -63l168 -181q49 63 56 117q1 5 -5 11.5t-12 7.5l-54 8v42h205v-42
l-72 -11q-24 -84 -85 -169l81 -93l89 -5v-43zM377 527q0 46 -23 75q-25 33 -71 33q-40 0 -65 -27t-25 -67q0 -43 33 -86q12 -17 60 -63q91 46 91 135zM432 109l-206 224q-72 -50 -72 -124q0 -67 42 -111.5t103 -44.5q67 0 133 56z" />
    <glyph glyph-name="quotesingle" unicode="'" horiz-adv-x="171" 
d="M128 665l-34 -244h-16l-35 244q0 49 42 49q43 0 43 -49z" />
    <glyph glyph-name="parenleft" unicode="(" horiz-adv-x="420" 
d="M386 -142q-148 16 -220 142q-64 110 -64 288t64 288q72 125 220 141v-44q-102 -17 -148 -118q-42 -92 -42 -267t42 -268q46 -101 148 -118v-44z" />
    <glyph glyph-name="parenright" unicode=")" horiz-adv-x="420" 
d="M318 288q0 -178 -64 -288q-72 -126 -220 -142v44q102 17 148 118q42 93 42 268t-42 267q-46 101 -148 118v44q148 -16 220 -141q64 -110 64 -288z" />
    <glyph glyph-name="asterisk" unicode="*" horiz-adv-x="500" 
d="M447 570l-45 -57l-129 -7l-5 14l108 71zM292 655l-35 -125h-14l-34 125l41 61zM371 337l-69 26l-46 120l12 9l101 -81zM232 520l-4 -14l-130 7l-45 57l71 21zM244 483l-46 -120l-69 -26l2 74l101 81z" />
    <glyph glyph-name="plus" unicode="+" horiz-adv-x="833" 
d="M714 269h-269v-269h-57v269h-269v57h269v268h57v-268h269v-57z" />
    <glyph glyph-name="comma" unicode="," horiz-adv-x="281" 
d="M211 10q0 -73 -51.5 -123.5t-122.5 -56.5v36q57 13 82 42q29 34 28 99h-63q-18 18 -18 46q0 26 17.5 42.5t44.5 16.5q83 0 83 -102z" />
    <glyph glyph-name="hyphen" unicode="-" horiz-adv-x="321" 
d="M276 203h-232v75h232v-75z" />
    <glyph glyph-name="period" unicode="." horiz-adv-x="280" 
d="M208 59q0 -28 -20 -47.5t-48 -19.5t-47.5 19.5t-19.5 47.5t19.5 47.5t47.5 19.5t48 -19.5t20 -47.5z" />
    <glyph glyph-name="slash" unicode="/" horiz-adv-x="490" 
d="M490 671l-426 -764h-64l426 764h64z" />
    <glyph glyph-name="zero" unicode="0" horiz-adv-x="563" 
d="M523 335q0 -151 -60 -245q-65 -102 -182 -102t-182 102q-59 93 -59 245t59 246q65 102 182 102t182 -102q60 -95 60 -246zM417 335q0 298 -136 298t-136 -298q0 -297 136 -297t136 297z" />
    <glyph glyph-name="one" unicode="1" horiz-adv-x="563" 
d="M446 0h-338v45l101 4q22 1 22 22v527l-155 -27v45l216 67h38v-612q0 -21 22 -22l94 -4v-45z" />
    <glyph glyph-name="two" unicode="2" horiz-adv-x="563" 
d="M516 0h-469v67q204 169 251 218q98 104 98 197q0 69 -42 110q-40 37 -101 37q-29 0 -57 -11q-13 -5 -26 -11v-111q-20 -17 -49 -17q-25 0 -42.5 15.5t-17.5 43.5q0 62 65 103.5t155 41.5q98 0 160.5 -52.5t62.5 -138.5q0 -93 -108 -204q-55 -55 -243 -204h296l18 86h49
v-170z" />
    <glyph glyph-name="three" unicode="3" horiz-adv-x="563" 
d="M516 191q0 -89 -76 -146t-186 -57q-94 0 -154 39q-53 34 -53 75q0 22 15.5 38t43.5 16q25 0 34 -7l30 -89q38 -22 87 -22q68 0 113 47q43 44 43 106q0 66 -50 99q-40 27 -100 27q-32 0 -61 -4v62h10q10 -1 16 -1q68 0 112 31q48 34 48 96q0 60 -40 95q-37 32 -91 32
q-49 0 -90 -24v-100q-26 -13 -45 -13q-58 0 -58 56q0 57 65 96.5t156 39.5q89 0 147 -45.5t58 -123.5q0 -117 -154 -161q72 -3 122 -41q58 -45 58 -121z" />
    <glyph glyph-name="four" unicode="4" horiz-adv-x="563" 
d="M523 199h-85v-211h-94v211h-304v69l328 415h70v-416h85v-68zM344 267v288l-225 -288h225z" />
    <glyph glyph-name="five" unicode="5" horiz-adv-x="563" 
d="M517 217q0 -104 -72 -165q-75 -64 -210 -64q-75 0 -134 38q-56 35 -56 76q0 56 63 56q11 0 27 -4l38 -92q27 -25 77 -25q74 0 122 51q43 46 43 105q0 81 -49 125q-46 40 -122 40q-60 0 -159 -34v347h386v-85h-315v-190q-7 0 43 13t92 13q105 0 165.5 -54.5t60.5 -150.5z
" />
    <glyph glyph-name="six" unicode="6" horiz-adv-x="563" 
d="M523 229q0 -107 -70 -174t-173 -67q-109 0 -171 67q-69 77 -69 232q0 182 106 289t294 107v-62l-34 1q-98 3 -169 -63q-74 -68 -89 -185q72 63 167 63q93 0 150.5 -58.5t57.5 -149.5zM421 216q0 73 -37.5 114.5t-103.5 41.5q-70 0 -135 -50q-2 -21 -2 -55
q0 -227 137 -227q69 0 107 51q34 46 34 125z" />
    <glyph glyph-name="seven" unicode="7" horiz-adv-x="563" 
d="M521 615l-328 -594v-33h-106l330 598h-308l-16 -91h-51v176h479v-56z" />
    <glyph glyph-name="eight" unicode="8" horiz-adv-x="563" 
d="M522 182q0 -85 -68.5 -139.5t-172.5 -54.5q-109 0 -175 53.5t-66 138.5q0 113 143 167q-48 19 -79 55q-37 42 -37 97q0 85 58.5 134.5t155.5 49.5q92 0 153 -47.5t61 -120.5q0 -102 -122 -162q149 -54 149 -171zM403 506q0 59 -36 94q-34 32 -86 32q-50 0 -82.5 -32
t-32.5 -78q0 -50 43 -87q39 -33 121 -63q73 53 73 134zM421 166q0 56 -52 92q-31 21 -146 67q-90 -49 -90 -137q0 -66 38.5 -106t109.5 -40q63 0 101.5 36t38.5 88z" />
    <glyph glyph-name="nine" unicode="9" horiz-adv-x="563" 
d="M523 384q0 -181 -105 -288q-108 -108 -296 -108v62l34 -1q98 -3 169 63q75 68 90 185q-72 -63 -167 -63q-93 0 -150.5 58.5t-57.5 148.5q0 108 69.5 175t172.5 67q109 0 171 -67q70 -77 70 -232zM419 404q0 227 -137 227q-69 0 -105 -48.5t-36 -127.5q0 -73 37.5 -114.5
t103.5 -41.5q70 0 135 50q2 21 2 55z" />
    <glyph glyph-name="colon" unicode=":" horiz-adv-x="293" 
d="M214 415q0 -28 -19.5 -47.5t-47.5 -19.5t-47 19.5t-19 47.5t19 47.5t47 19.5t47.5 -19.5t19.5 -47.5zM214 59q0 -28 -19.5 -47.5t-47.5 -19.5t-47 19.5t-19 47.5t19 47.5t47 19.5t47.5 -19.5t19.5 -47.5z" />
    <glyph glyph-name="semicolon" unicode=";" horiz-adv-x="323" 
d="M229 415q0 -28 -19.5 -47.5t-47.5 -19.5t-47.5 19.5t-19.5 47.5t20 47.5t48 19.5t47 -19.5t19 -47.5zM238 10q0 -73 -51.5 -123.5t-122.5 -56.5v36q57 13 82 42q29 34 28 99h-63q-18 18 -18 46q0 26 17.5 42.5t44.5 16.5q83 0 83 -102z" />
    <glyph glyph-name="less" unicode="&#x3c;" horiz-adv-x="833" 
d="M704 37l-575 235v51l575 236v-62l-488 -199l488 -198v-63z" />
    <glyph glyph-name="equal" unicode="=" horiz-adv-x="833" 
d="M709 363h-585v57h585v-57zM709 176h-585v57h585v-57z" />
    <glyph glyph-name="greater" unicode="&#x3e;" horiz-adv-x="833" 
d="M704 272l-575 -235v63l488 198l-488 199v62l575 -236v-51z" />
    <glyph glyph-name="question" unicode="?" horiz-adv-x="486" 
d="M417 504q0 -84 -66 -143q-41 -37 -124 -74v-111h-56v145q58 19 96 58q49 50 49 117q0 138 -143 138l-41 -102l-17 -1q-65 0 -65 54q0 39 39 67q44 31 120 31q90 0 149 -49.5t59 -129.5zM262 53q0 -25 -18 -43t-44 -18q-25 0 -43 18t-18 44t18 43.5t43 17.5q26 0 44 -18
t18 -44z" />
    <glyph glyph-name="at" unicode="@" horiz-adv-x="936" 
d="M867 373q0 -141 -84 -235q-75 -82 -160 -82q-78 0 -78 83q-82 -82 -144 -82q-55 0 -90 44.5t-35 118.5q0 112 77 193q74 79 171 79q49 0 98 -27l18 23h57q-5 -15 -69 -297q-4 -18 -4 -32q0 -46 41 -46q51 0 99 70q55 79 55 189q0 133 -88 208q-78 67 -193 67
q-170 0 -280 -111t-110 -279q0 -157 92 -256q96 -104 258 -104q131 0 264 74l15 -36q-165 -88 -303 -88q-166 0 -279 105q-119 110 -119 287q0 210 141 337q128 115 309 115q153 0 245 -82q96 -85 96 -236zM588 393q3 15 -15.5 36t-43.5 21q-73 0 -117.5 -63.5t-44.5 -157.5
q0 -108 79 -108q50 0 102 65z" />
    <glyph glyph-name="A" unicode="A" horiz-adv-x="664" 
d="M664 0h-238v43l58 5q4 0 7.5 6.5t2.5 10.5l-68 183h-232l-66 -180q-2 -6 3 -13t11 -7l59 -5v-43h-201v43l58 12l233 624h75l232 -609q4 -11 7 -14t14 -5l45 -8v-43zM407 296l-99 270l-96 -270h195z" />
    <glyph glyph-name="B" unicode="B" horiz-adv-x="609" 
d="M566 198q0 -109 -88 -160q-65 -38 -166 -38h-280v43l53 4q21 2 21 22v533q0 20 -21 22l-53 4v43h268q225 0 225 -161q0 -117 -144 -154q77 0 126 -35q59 -41 59 -123zM417 503q0 122 -154 122q-12 0 -33.5 -1.5t-23.5 -1.5v-253q26 -1 36 -1q175 0 175 135zM457 190
q0 132 -161 132q-20 0 -55 -3l-35 -3v-264q44 -3 62 -3q103 0 146 34t43 107z" />
    <glyph glyph-name="C" unicode="C" horiz-adv-x="624" 
d="M582 23q-87 -35 -197 -35q-158 0 -254 105q-90 97 -90 239q0 153 95 247t250 94q84 0 196 -35v-154h-59l-15 89q-3 17 -16 23q-46 22 -101 22q-105 0 -168 -71q-68 -75 -68 -212t66 -215t183 -78q49 0 80 13q15 6 18 20l23 107h57v-159z" />
    <glyph glyph-name="D" unicode="D" horiz-adv-x="698" 
d="M657 337q0 -145 -79 -234q-92 -103 -268 -103h-278v43l53 4q22 2 22 22v533q0 20 -22 22l-53 4v43h258q166 0 262 -80q105 -88 105 -254zM544 335q0 288 -260 288h-77v-575l82 1q255 3 255 286z" />
    <glyph glyph-name="E" unicode="E" horiz-adv-x="585" 
d="M552 0h-520v43l53 4q22 2 22 22v533q0 20 -22 22l-53 4v43h486v-149h-60l-14 82q-3 19 -18 19h-219v-249h152q16 0 18 17l9 69h51v-223h-51l-9 69q-2 18 -18 18h-152v-275h255q15 0 18 19l17 99h55v-167z" />
    <glyph glyph-name="F" unicode="F" horiz-adv-x="542" 
d="M517 512h-59l-14 92q-3 18 -17 18h-214v-260h154q16 0 18 18l9 70h50v-225h-50l-9 70q-2 18 -18 18h-154v-244q0 -21 21 -22l67 -4v-43h-262v43l53 4q21 2 21 22v533q0 21 -21 22l-61 4v43h486v-159z" />
    <glyph glyph-name="G" unicode="G" horiz-adv-x="698" 
d="M673 281l-51 -5q-21 -2 -21 -21v-231q-110 -36 -210 -36q-161 0 -258 105q-91 98 -91 244q0 158 97.5 252t264.5 94q82 0 196 -30v-162h-60l-16 90q-3 17 -20 24q-51 22 -104 22q-111 0 -176 -73q-68 -76 -68 -212q0 -142 70 -221q67 -77 186 -77q27 0 58.5 5.5t29.5 5.5
v200q0 19 -21 21l-67 5v43h261v-43z" />
    <glyph glyph-name="H" unicode="H" horiz-adv-x="743" 
d="M711 0h-252v43l57 4q21 1 21 22v258h-330v-258q0 -21 21 -22l57 -4v-43h-253v43l52 4q22 2 22 22v533q0 19 -22 21l-52 4v44h253v-44l-57 -4q-21 -1 -21 -21v-225h330v225q0 20 -21 21l-57 4v44h252v-44l-52 -4q-22 -2 -22 -21v-533q0 -20 22 -22l52 -4v-43z" />
    <glyph glyph-name="I" unicode="I" horiz-adv-x="330" 
d="M297 0h-264v43l60 4q21 1 21 22v533q0 20 -21 21l-60 4v44h264v-44l-61 -4q-21 -1 -21 -21v-533q0 -21 21 -22l61 -4v-43z" />
    <glyph glyph-name="J" unicode="J" horiz-adv-x="479" 
d="M459 628l-58 -4q-21 -1 -21 -22v-349q0 -130 -49 -195q-54 -70 -171 -70q-63 0 -135 24v171h60l22 -122q4 -22 46 -22q67 0 97 50t30 157v356q0 21 -21 22l-63 4v43h263v-43z" />
    <glyph glyph-name="K" unicode="K" horiz-adv-x="638" 
d="M638 0h-175v31l-186 267h-69l-1 -229q0 -20 22 -22l57 -4v-43h-254v43l53 4q21 2 21 22v533q0 20 -21 22l-53 4v43h254v-43l-57 -4q-22 -2 -22 -22l1 -262h35l218 266q4 4 0 11q-3 5 -8 6l-51 5v43h212v-43l-68 -8l-204 -244l224 -328l72 -5v-43z" />
    <glyph glyph-name="L" unicode="L" horiz-adv-x="526" 
d="M513 0h-486v43l58 4q21 1 21 22v533q0 21 -21 22l-58 4v43h255v-43l-53 -4q-22 -2 -22 -22v-553h210q20 0 22 17l16 120h58v-186z" />
    <glyph glyph-name="M" unicode="M" horiz-adv-x="871" 
d="M841 0h-248v43l53 4q22 2 22 22v551l-230 -620h-50l-222 611v-542q0 -20 22 -22l57 -4v-43h-216v43l57 4q21 1 21 22v533q0 21 -21 22l-57 4v43h224v-27l181 -491l181 488v30h226v-43l-54 -4q-22 -2 -22 -22v-533q0 -20 22 -22l54 -4v-43z" />
    <glyph glyph-name="N" unicode="N" horiz-adv-x="716" 
d="M692 628l-56 -4q-21 -1 -21 -22v-602h-78l-372 560v-491q0 -21 21 -22l57 -4v-43h-216v43l57 4q22 2 22 22v533q0 21 -22 22l-59 4v43h198v-25l333 -503v459q0 21 -21 22l-57 4v43h214v-43z" />
    <glyph glyph-name="O" unicode="O" horiz-adv-x="736" 
d="M695 335q0 -149 -89 -248q-93 -103 -237 -103q-145 0 -237 101q-90 98 -90 251q0 150 88 249q92 103 238 103q145 0 238 -104q89 -100 89 -249zM579 334q0 129 -52 210q-57 87 -158 87q-103 0 -160 -88q-52 -80 -52 -207q0 -128 52 -208q56 -89 158 -89q103 0 160 88
q52 80 52 207z" />
    <glyph glyph-name="P" unicode="P" horiz-adv-x="565" 
d="M540 469q0 -106 -76 -164q-71 -55 -185 -54q-53 0 -71 4v-186q0 -21 21 -22l66 -4v-43h-263v43l53 4q22 2 22 22v533q0 21 -22 22l-60 4v43h239q144 0 209 -45q67 -48 67 -157zM436 468q0 154 -177 154q-18 0 -51 -1v-315l22.5 -2.5t33.5 -2.5q172 -1 172 167z" />
    <glyph glyph-name="Q" unicode="Q" horiz-adv-x="742" 
d="M703 335q0 -136 -73.5 -229t-202.5 -114q2 -119 138 -119q47 0 96 11v-43q-79 -17 -148 -17q-193 0 -193 166q-123 18 -199 108q-79 94 -79 237q0 150 91 251.5t238 101.5q149 0 242 -103q90 -99 90 -250zM585 335q0 127 -51 207q-58 90 -162 90t-161 -88
q-52 -80 -52 -207q0 -125 53 -206q58 -89 160 -89q103 0 161 88q52 79 52 205z" />
    <glyph glyph-name="R" unicode="R" horiz-adv-x="650" 
d="M650 1q-72 -8 -66 -8q-80 0 -112.5 35.5t-54.5 113.5q-24 83 -45 111q-35 46 -119 46q-13 0 -29.5 -1t-15.5 -1v-228q0 -20 21 -22l53 -4v-43h-249v43l52 4q22 2 22 22v533q0 20 -22 22l-52 4v43h261q245 0 245 -178q0 -130 -164 -167q61 -15 86 -44q32 -38 50 -111
t42 -101t97 -28v-41zM430 489q0 133 -176 133h-46v-274h20q20 -1 30 -1q87 0 129.5 32.5t42.5 109.5z" />
    <glyph glyph-name="S" unicode="S" horiz-adv-x="530" 
d="M487 188q0 -84 -62 -138q-71 -62 -203 -62q-100 0 -178 33v177h63l13 -113q2 -16 17 -22q47 -19 101 -19q66 0 106.5 30t40.5 84q0 52 -61 94q-20 14 -115 59q-77 37 -108 66q-46 45 -46 114q0 88 65 140t166 52q82 0 176 -30v-156h-57l-15 96q-2 10 -15 17
q-28 19 -88 19q-59 0 -94 -31.5t-35 -82.5q0 -79 139 -132q98 -37 140 -77q50 -47 50 -118z" />
    <glyph glyph-name="T" unicode="T" horiz-adv-x="599" 
d="M583 511h-59l-14 94q-3 17 -17 17h-143v-553q0 -21 21 -22l64 -4v-43h-271v43l64 4q21 1 21 22v553h-144q-14 0 -17 -17l-14 -94h-58v160h567v-160z" />
    <glyph glyph-name="U" unicode="U" horiz-adv-x="704" 
d="M682 628l-57 -4q-21 -1 -21 -22v-380q0 -234 -258 -234q-249 0 -249 234v380q0 20 -21 22l-53 4v43h259v-43l-57 -4q-21 -1 -21 -22v-354q0 -96 33 -140q39 -53 137 -53q97 0 137 55q34 45 34 138v354q0 20 -22 22l-57 4v43h216v-43z" />
    <glyph glyph-name="V" unicode="V" horiz-adv-x="666" 
d="M656 628l-58 -11l-224 -622h-76l-229 623l-59 10v43h239v-43l-59 -5q-5 0 -8 -6.5t-1 -11.5l176 -488l169 486q2 6 -2.5 12.5t-11.5 7.5l-55 5v43h199v-43z" />
    <glyph glyph-name="W" unicode="W" horiz-adv-x="931" 
d="M921 628l-61 -12l-153 -621h-73l-167 543l-164 -543h-72l-163 621l-58 12v43h229v-43l-60 -6q-15 -1 -10 -20l119 -445l157 514h77l161 -525l111 456q4 18 -14 20l-63 6v43h204v-43z" />
    <glyph glyph-name="X" unicode="X" horiz-adv-x="633" 
d="M624 0h-257v43l58 6q14 1 14 14q0 4 -2 7l-133 209l-154 -212q-12 -17 12 -19l60 -5v-43h-212v43l60 12l201 276l-182 286l-66 12v42h251v-42l-51 -5q-23 -2 -12 -20l122 -189l135 186q3 4 3 8q0 11 -14 13l-51 7v42h209v-42l-64 -10l-186 -256l197 -308l62 -12v-43z" />
    <glyph glyph-name="Y" unicode="Y" horiz-adv-x="625" 
d="M615 629l-54 -10l-201 -334v-216q0 -21 21 -22l64 -4v-43h-269v43l62 4q22 1 22 22v201l-192 347l-58 12v42h237v-42l-50 -5q-22 -2 -12 -20l140 -262l155 259q2 3 2 7q0 12 -14 14l-56 7v42h203v-42z" />
    <glyph glyph-name="Z" unicode="Z" horiz-adv-x="587" 
d="M542 0h-497v44l372 577h-260q-14 0 -17 -17l-15 -93h-59v160h471v-46l-373 -574h285q14 0 17 18l17 116h59v-185z" />
    <glyph glyph-name="bracketleft" unicode="[" horiz-adv-x="426" 
d="M383 -132h-244v840h244v-45h-157v-749h157v-46z" />
    <glyph glyph-name="backslash" unicode="\" horiz-adv-x="489" 
d="M489 -93h-64l-425 764h64z" />
    <glyph glyph-name="bracketright" unicode="]" horiz-adv-x="426" 
d="M290 -132h-246v46h157v749h-157v45h246v-840z" />
    <glyph glyph-name="asciicircum" unicode="^" horiz-adv-x="958" 
d="M740 11h-63l-198 488l-199 -488h-62l236 575h51z" />
    <glyph glyph-name="underscore" unicode="_" horiz-adv-x="500" 
d="M500 -236h-500v65h500v-65z" />
    <glyph glyph-name="grave" unicode="`" horiz-adv-x="350" 
d="M232 551h-57l-152 97q-23 15 -23 40q0 45 46 45q29 0 52 -27z" />
    <glyph glyph-name="a" unicode="a" horiz-adv-x="512" 
d="M500 0h-150l-13 59q-93 -67 -165 -67q-56 0 -93 35t-37 96q0 62 49 97q63 45 246 85v43q0 99 -91 99q-38 0 -71 -13v-87h-73q-37 0 -37 29q0 57 67 89q58 28 141 28q158 0 158 -149v-280q0 -21 21 -22l48 -3v-39zM337 94v173q-123 -31 -165 -67q-31 -26 -31 -70
q0 -33 20.5 -56t54.5 -23q49 0 121 43z" />
    <glyph glyph-name="b" unicode="b" horiz-adv-x="550" 
d="M516 264q0 -119 -68 -188q-74 -76 -218 -76h-144v665h-76v33l128 39h41v-281q77 37 138 37q94 0 149 -68q50 -64 50 -161zM415 244q0 190 -154 190q-39 0 -82 -15v-371q-1 0 18 0q19 -1 31 -1q93 0 138 44q49 47 49 153z" />
    <glyph glyph-name="c" unicode="c" horiz-adv-x="470" 
d="M435 41q-92 -49 -169 -49q-104 0 -166.5 68.5t-62.5 177.5q0 120 73 191q66 64 168 64q68 0 111.5 -26.5t43.5 -73.5q0 -28 -17.5 -43t-41.5 -15q-26 0 -50 16v88q-21 12 -42 12q-66 0 -104.5 -55.5t-38.5 -144.5q0 -87 42 -140q44 -56 124 -56q64 0 130 43v-57z" />
    <glyph glyph-name="d" unicode="d" horiz-adv-x="562" 
d="M542 0h-158v53q-80 -61 -155 -61q-94 0 -146 76q-46 65 -46 160q0 110 63 184q70 81 192 81q48 0 92 -11v183h-76v33l129 39h41v-673q0 -21 21 -22l43 -3v-39zM384 91v340q-42 15 -85 15q-74 0 -118.5 -55t-44.5 -146q0 -83 38.5 -134t106.5 -51q53 0 103 31z" />
    <glyph glyph-name="e" unicode="e" horiz-adv-x="495" 
d="M459 50q-93 -58 -190 -58q-98 0 -161 59q-71 66 -71 185q0 116 66 186.5t169 70.5q90 0 140 -57q47 -55 47 -147q0 -19 -1 -28h-324q0 -88 35 -142q43 -66 132 -66q71 0 158 58v-61zM359 306v22q0 52 -24.5 84.5t-72.5 32.5q-50 0 -84.5 -38t-38.5 -101h220z" />
    <glyph glyph-name="f" unicode="f" horiz-adv-x="326" 
d="M389 684q0 -41 -46 -54q-2 2 -46.5 33.5t-45.5 32.5q-56 -29 -58 -151l-1 -76h124v-50h-124v-355q0 -21 21 -22l59 -3v-39h-243v39l49 3q21 1 21 22v355h-64v34l64 18q0 98 34 163q57 110 170 110q41 0 63.5 -17.5t22.5 -42.5z" />
    <glyph glyph-name="g" unicode="g" horiz-adv-x="530" 
d="M513 415h-100q27 -43 27 -90q0 -77 -66 -122q-62 -42 -150 -36q-20 -32 -8 -67q102 -10 111 -17q160 -25 160 -123q0 -72 -76 -124.5t-184 -52.5q-89 0 -138.5 34.5t-49.5 95.5q0 46 26 77q28 35 80 44q-10 30 -10 46q0 43 50 94q-53 12 -87 50q-37 42 -37 100
q0 78 55 123.5t146 45.5q53 0 116 -29h135v-49zM345 331q0 50 -25 85.5t-68 35.5t-69 -32.5t-26 -89.5q0 -53 24 -86q26 -36 71 -36q44 0 68.5 35t24.5 88zM401 -67q0 32 -18 48.5t-68 25.5l-110 20q-76 -28 -76 -94q0 -40 32 -70q36 -33 99 -33q66 0 106 33q35 30 35 70z
" />
    <glyph glyph-name="h" unicode="h" horiz-adv-x="572" 
d="M554 0h-222v39l41 3q22 2 22 22v258q0 99 -99 99q-55 0 -108 -29v-328q0 -21 20 -22l43 -3v-39h-226v39l48 3q21 1 21 22v601h-75v33l128 39h41v-305q100 61 164 61q61 0 96 -36q39 -40 39 -114v-279q0 -21 22 -22l45 -3v-39z" />
    <glyph glyph-name="i" unicode="i" horiz-adv-x="303" 
d="M218 646q0 -26 -18 -44t-43 -18t-43.5 18.5t-18.5 43.5t18 43t44 18t43.5 -17.5t17.5 -43.5zM269 0h-235v39l49 3q21 1 21 22v357h-69v34l122 38h40v-429q0 -21 21 -22l51 -3v-39z" />
    <glyph glyph-name="j" unicode="j" horiz-adv-x="308" 
d="M213 646q0 -26 -18 -44t-43 -18t-43.5 18.5t-18.5 43.5t18 43t44 18t43.5 -17.5t17.5 -43.5zM202 76q0 -140 -39 -200q-61 -94 -166 -94q-76 0 -76 56q0 43 43 58l97 -67q48 27 48 162v426h-71v33l123 38h41v-412z" />
    <glyph glyph-name="k" unicode="k" horiz-adv-x="539" 
d="M529 0h-155v35l-130 192h-56v-163q0 -21 21 -22l43 -3v-39h-227v39l49 3q21 1 21 22v601h-76v33l128 39h41v-481h20l147 167q4 4 1 10q-2 6 -9 7l-41 4v38h194v-38l-64 -7l-132 -142l172 -250l53 -6v-39z" />
    <glyph glyph-name="l" unicode="l" horiz-adv-x="297" 
d="M270 0h-243v39l53 3q7 0 14.5 7t7.5 14v602h-76v33l128 39h41v-674q0 -7 7 -14t14 -7l54 -3v-39z" />
    <glyph glyph-name="m" unicode="m" horiz-adv-x="855" 
d="M837 0h-225v39l41 3q21 2 21 22v255q0 102 -89 102q-50 0 -106 -29v-328q0 -20 21 -22l42 -3v-39h-219v39l42 3q21 2 21 22v260q0 97 -88 97q-56 0 -107 -29v-328q0 -20 21 -22l42 -3v-39h-226v39l49 3q21 1 21 22v353h-69v33l121 38h41v-56q102 61 163 61q75 0 110 -68
q109 68 173 68q71 0 105 -50q26 -40 26 -102v-277q0 -21 21 -22l48 -3v-39z" />
    <glyph glyph-name="n" unicode="n" horiz-adv-x="577" 
d="M552 0h-221v39l42 3q21 2 21 22v259q0 98 -96 98q-52 0 -110 -29v-328q0 -20 21 -22l42 -3v-39h-226v39l49 3q21 1 21 22v353h-70v33l122 38h41v-56q107 61 165 61q134 0 134 -153v-276q0 -21 21 -22l44 -3v-39z" />
    <glyph glyph-name="o" unicode="o" horiz-adv-x="548" 
d="M513 241q0 -108 -65.5 -178.5t-173.5 -70.5t-173 71q-64 68 -64 178t65 181t174 71t173 -71.5t64 -180.5zM409 242q0 87 -33 144q-37 62 -101 62q-66 0 -101 -62q-32 -56 -32 -144q0 -87 33 -143q36 -62 100 -62q65 0 102 62q32 55 32 143z" />
    <glyph glyph-name="p" unicode="p" horiz-adv-x="561" 
d="M527 257q0 -119 -67.5 -189.5t-185.5 -70.5q-33 0 -89 9v-160q0 -19 22 -21l59 -5v-38h-243v38l48 5q21 2 21 21v571h-69v33l122 38h40v-56q79 61 151 61q80 0 134 -62q57 -66 57 -174zM427 243q0 80 -35 129q-38 52 -105 52q-46 0 -102 -30v-335q43 -16 81 -16
q78 0 122 61q39 55 39 139z" />
    <glyph glyph-name="q" unicode="q" horiz-adv-x="542" 
d="M537 -218h-242v38l59 5q21 2 21 21v190q-80 -39 -140 -39q-91 0 -144.5 65t-53.5 167q0 123 76.5 194t212.5 71q75 0 142 -16v-632q0 -19 21 -21l48 -5v-38zM375 70v368q-45 10 -69 10q-80 0 -124 -55t-44 -148q0 -84 35 -133q39 -56 116 -56q42 0 86 14z" />
    <glyph glyph-name="r" unicode="r" horiz-adv-x="396" 
d="M386 380h-39q-23 27 -54 27q-46 0 -100 -62v-281q0 -21 21 -22l66 -3v-39h-250v38l49 4q21 2 21 22v353h-72v33l124 38h41v-95q43 48 59 62q43 38 73 38q35 0 61 -14v-99z" />
    <glyph glyph-name="s" unicode="s" horiz-adv-x="409" 
d="M371 145q0 -73 -50.5 -113.5t-140.5 -40.5q-84 0 -139 22v134h51l12 -86q38 -25 89 -25q41 0 65.5 22.5t24.5 53.5q0 38 -32 62q-17 13 -90 48q-59 28 -84 54q-29 30 -29 73q0 67 47.5 106t132.5 39q77 0 128 -23v-118h-52l-8 71q-29 23 -76 23q-81 0 -81 -67
q0 -33 23 -53t88 -50q121 -55 121 -132z" />
    <glyph glyph-name="t" unicode="t" horiz-adv-x="340" 
d="M334 21q-69 -24 -136 -24q-58 0 -82.5 22.5t-24.5 80.5v319h-64v33l68 32l45 96h44v-111h141v-50h-141v-266q0 -57 19 -78.5t61 -21.5q36 0 70 8v-40z" />
    <glyph glyph-name="u" unicode="u" horiz-adv-x="569" 
d="M548 0h-158v57q-85 -65 -161 -65q-138 0 -138 158v271h-70v34l123 38h41v-324q0 -109 96 -109q57 0 109 26v335h-70v34l122 38h40v-429q0 -21 22 -22l44 -3v-39z" />
    <glyph glyph-name="v" unicode="v" horiz-adv-x="529" 
d="M519 444l-53 -6l-175 -438h-65l-161 438l-55 6v38h221v-38l-48 -3q-8 -1 -13 -7.5t-2 -14.5l112 -314l123 314q3 8 -1.5 14.5t-12.5 7.5l-45 3v38h175v-38z" />
    <glyph glyph-name="w" unicode="w" horiz-adv-x="783" 
d="M773 444l-51 -6l-137 -438h-71l-118 374l-132 -374h-71l-128 438l-55 6v38h219v-38l-47 -3q-21 -1 -15 -22l83 -312l129 375h71l116 -375l92 312q6 21 -14 22l-46 3v38h175v-38z" />
    <glyph glyph-name="x" unicode="x" horiz-adv-x="513" 
d="M503 0h-216v39l35 4q7 1 9 7q3 6 -1 11l-86 128l-98 -128q-4 -5 -2 -11t9 -7l49 -4v-39h-190v39l58 8l143 186l-137 202l-59 9v38h221v-38l-36 -5q-7 -1 -10 -7t1 -11l78 -113l88 113q4 5 1 11q-2 6 -9 7l-43 5v38h181v-38l-55 -9l-133 -172l147 -216l55 -8v-39z" />
    <glyph glyph-name="y" unicode="y" horiz-adv-x="530" 
d="M520 444l-52 -6l-192 -469q-43 -105 -86 -148q-39 -39 -87 -39q-34 0 -53.5 17t-19.5 41q0 34 32 60l94 -43q45 45 79 144l-170 437l-55 6v38h221v-38l-48 -3q-16 -1 -16 -16q0 -3 1 -6l116 -296l119 296q3 8 -1.5 14.5t-12.5 7.5l-47 3v38h178v-38z" />
    <glyph glyph-name="z" unicode="z" horiz-adv-x="475" 
d="M439 0h-394v53l265 382h-174q-17 0 -20 -21l-10 -74h-51v142h370v-41l-274 -393h202q7 0 14 8t8 16l10 79h54v-151z" />
    <glyph glyph-name="braceleft" unicode="{" horiz-adv-x="488" 
d="M419 -123q-132 0 -174 44q-30 31 -37 82q-4 24 -4 96q0 115 -28 142t-116 27v45q88 0 116 27t28 142q0 72 4 96q7 51 37 82q42 44 174 44v-41q-74 0 -102 -30q-18 -20 -22 -64q-2 -16 -2 -84q0 -100 -29 -137q-32 -41 -106 -57q73 -16 106 -58q29 -37 29 -137
q0 -68 2 -84q4 -44 22 -64q28 -30 102 -30v-41z" />
    <glyph glyph-name="bar" unicode="|" horiz-adv-x="500" 
d="M285 -236h-69v1000h69v-1000z" />
    <glyph glyph-name="braceright" unicode="}" horiz-adv-x="488" 
d="M428 268q-88 0 -116 -27t-28 -142q0 -72 -4 -96q-7 -51 -37 -82q-42 -44 -174 -44v41q74 0 102 30q18 20 22 64q2 16 2 84q0 100 29 137q33 42 106 58q-74 16 -106 57q-29 37 -29 137q0 68 -2 84q-4 44 -22 64q-28 30 -102 30v41q132 0 174 -44q30 -31 37 -82
q4 -24 4 -96q0 -115 28 -142t116 -27v-45z" />
    <glyph glyph-name="asciitilde" unicode="~" horiz-adv-x="833" 
d="M747 306q-102 -70 -188 -70q-46 0 -141 33.5t-148 33.5q-76 0 -183 -78v65q99 71 190 71q50 0 145.5 -33.5t137.5 -33.5q81 0 187 77v-65z" />
    <glyph glyph-name="uni214F" unicode="&#x214f;" horiz-adv-x="898" 
d="M849 53l-10 -57q-103 0 -159 61q-53 -61 -121 -61q-76 0 -120 56q-53 -56 -117 -56q-68 0 -115 64q-63 -63 -151 -63l-7 56q77 0 131 54q-30 66 -30 137q0 93 68 93q29 0 47 -23.5t18 -65.5q0 -72 -37 -136q39 -44 86 -44q39 0 76 35q-26 64 -26 145q0 43 20 66t48 23
q65 0 65 -89q0 -72 -37 -141q34 -39 87 -39q45 0 82 35q-31 59 -31 145q0 45 21 69q17 20 45 20q66 0 66 -89q0 -72 -34 -140q52 -55 135 -55zM696 227q0 53 -14 53q-15 0 -15 -53q0 -38 15 -71q14 33 14 71zM463 226q0 54 -14 54t-14 -54q0 -33 12 -69q16 34 16 69z
M230 223q0 57 -12 57q-16 0 -16 -57q0 -33 14 -64q14 33 14 64z" />
    <glyph glyph-name="u1D504" unicode="&#x1d504;" horiz-adv-x="723" 
d="M683 125l-116 -129q-113 0 -113 117v58l-207 -188l-195 132v26q181 86 181 241q0 66 -40 117q-37 46 -77 46q-28 0 -61 -6l-14 32l125 108q84 -1 141 -69q54 -65 54 -152q0 -75 -47 -147q-33 -50 -101 -114q11 -7 112 -79l129 115v235q0 87 -49 102v32q94 16 216 77
l22 -30q-55 -56 -55 -107v-358q0 -39 38 -39q24 0 35 8z" />
    <glyph glyph-name="u1D504_uni0308" horiz-adv-x="723" 
d="M546 700q0 -22 -21 -37.5t-50 -15.5t-49.5 15.5t-20.5 37.5q0 23 20.5 38.5t49.5 15.5t50 -16t21 -38zM348 700q0 -22 -20.5 -37.5t-49.5 -15.5t-50 15.5t-21 37.5t21 38t50 16t49.5 -15.5t20.5 -38.5zM683 125l-116 -129q-113 0 -113 117v58l-207 -188l-195 132v26
q101 48 143 101q38 50 38 123q0 65 -40 106q-35 35 -77 35q-28 0 -61 -5l-14 32l125 107q85 -1 140 -57.5t55 -141.5q0 -74 -47 -138q-24 -34 -101 -106q11 -7 112 -79l129 115v209q0 85 -49 103v31q98 18 216 77l22 -30q-55 -55 -55 -107v-332q0 -39 38 -39q24 0 35 8z" />
    <glyph glyph-name="u1D505" unicode="&#x1d505;" horiz-adv-x="736" 
d="M695 252q0 -72 -60 -123q-46 -41 -103 -53q-43 -9 -96 -38l-98 -53l-287 157v51q89 34 126 79t37 117q0 67 -35 114q-32 43 -71 43q-29 0 -53 -10l-14 32l125 108q115 -18 154 -118l143 123q10 1 20 1q64 0 112 -34q52 -37 52 -94q0 -88 -76 -128q59 -20 91.5 -68
t32.5 -106zM515 495q0 64 -88 64q-14 0 -38 -7.5t-33 -16.5l-23 -22q5 -25 5 -62q0 -39 -15 -79l43 7q43 7 85 30q64 35 64 86zM557 207q0 70 -59 106q-48 29 -118 29q-27 0 -78 -11q-35 -55 -94 -97l247 -130q47 -1 77 37q25 31 25 66z" />
    <glyph glyph-name="uni212D" unicode="&#x212d;" horiz-adv-x="682" 
d="M641 145l-87 -139q-98 -19 -157 -19q-182 0 -281 112q-75 86 -75 187q0 133 105 230l167 155h301l12 -32l-83 -88h-244l97 -186q18 -34 18 -56q0 -17 -14 -48l-66 -147q24 -3 52 -3q76 0 118 17q29 11 76 48zM305 189q7 16 7 31q0 17 -9 34l-121 236q-38 -41 -47 -72
q-8 -24 -8 -84q0 -70 35 -123q40 -60 116 -85z" />
    <glyph glyph-name="u1D50A" unicode="&#x1d50a;" horiz-adv-x="779" 
d="M738 273q0 -112 -96 -197q-103 -89 -255 -89q-168 0 -259 86q-87 82 -87 224q0 68 34 126q29 48 93 103l167 145h305l9 -32l-80 -88h-243l84 -141l160 108q168 -67 168 -245zM608 249q0 59 -35 102t-74 43q-13 0 -23 -6l-40 -22l31 -53q16 -27 16 -50q0 -27 -24 -61
l-110 -159q22 -5 42 -5q109 0 167 64q50 57 50 147zM361 204l-157 282q-39 -68 -39 -160q0 -60 33 -134q39 -89 102 -128l53 73q15 20 15 41q0 14 -7 26z" />
    <glyph glyph-name="u1D50E" unicode="&#x1d50e;" horiz-adv-x="781" 
d="M740 134l-171 -138q-100 32 -100 250q0 52 -20 85.5t-55 33.5q-27 0 -45 -3v-88q0 -15 -12.5 -33t-28.5 -27l-80 -46l114 -46q12 -5 23 -5q15 0 36 14l24 -24l-150 -116l-226 91v33l103 45q53 23 53 76l-2 268q0 40 -18 40q-5 0 -31 -13t-51 -13q-32 0 -62 23l44 83
q19 35 45 35q22 0 47.5 -14.5t50.5 -14.5q36 0 70 22l31 20l20 -13v-265h36q42 0 71 31.5t30 71.5q1 78 24 121q28 51 93 69l126 -93l-11 -25q-105 0 -133 -103q-2 -9 -17.5 -33t-24.5 -31q14 -7 37 -53t30 -84q9 -54 21 -78q18 -36 51 -36q25 0 37 7z" />
    <glyph glyph-name="u1D50F" unicode="&#x1d50f;" horiz-adv-x="612" 
d="M575 624q-133 -99 -151 -99q-14 0 -66 36t-69 36q-14 0 -14 -14q0 -35 34 -71l65 -60q34 -39 34 -82q0 -64 -129 -167l-16 16q33 33 33 74q0 33 -55.5 104t-55.5 97q0 37 15 59q16 26 65 58q102 68 128 68q12 0 56.5 -28.5t61.5 -28.5q18 0 50 17zM249 286q0 -43 -54 -97
q-40 -41 -75 -59l-15 16q2 -5 29.5 26.5t27.5 58.5q0 24 -31 56q-53 52 -59 60q-31 41 -31 88q0 98 136 174l14 -12q-52 -38 -52 -111q0 -38 55 -102.5t55 -97.5zM555 125q-5 -4 -110 -100q-42 -38 -68 -38q-13 0 -99.5 39.5t-100.5 39.5q-19 0 -51 -19l-43 -27l-16 17
l112 94q48 40 98 40q15 0 80 -31t85 -31q40 0 68 19l27 18z" />
    <glyph glyph-name="u1D510" unicode="&#x1d510;" horiz-adv-x="1010" 
d="M969 82l-131 -86q-53 9 -79 49.5t-26 127.5v186q0 46 32 71l159 124l19 -25l-54 -45q-27 -22 -27 -86v-240q0 -25 19 -40.5t44 -15.5q16 0 28 6zM942 628l-110 -87q-19 -15 -29 -15q-13 0 -40 13q-59 30 -62 30q-18 10 -32 10q-28 0 -63 -26l-30 -22q3 -24 3 -40v-491
h-126v446q0 49 -21.5 87.5t-54.5 37.5q-23 0 -55 -24l-28 -21q16 -42 16 -80q0 -137 -152 -288l116 -46q25 -10 42 -10q23 0 49 18l21 -26l-119 -108l-226 90v22q154 144 154 256q0 91 -52 148q-37 39 -85 51v24l117 102q65 -42 107 -127l91 68q79 59 101 59q62 0 93 -111
l82 61q67 50 82 50q19 0 36 -8l81 -38q19 -9 23 -9q10 0 23 9l27 19z" />
    <glyph glyph-name="u1D513" unicode="&#x1d513;" horiz-adv-x="819" 
d="M779 236q0 -109 -53 -178.5t-138 -69.5q-44 0 -99 24q-85 36 -91 38v-153q0 -50 -27 -88q-29 -43 -75 -43q-54 0 -88 24v43q14 -4 27 -4q29 0 48.5 16t19.5 43v170q-80 -6 -138 -37v44q46 43 138 53l-1 343q0 62 -43 112q-40 46 -82 46q-40 0 -64 -25q-29 -29 -29 -84
q0 -39 32 -77l58 -64q32 -41 32 -88q0 -58 -45 -90q-31 -22 -76 -27v29q67 13 67 60q0 21 -31 56q-48 54 -56 66q-24 36 -24 104q0 87 44 154q50 75 130 75q94 0 190 -145q63 98 107 98q29 0 94 -71q68 -75 116 -166q57 -107 57 -188zM716 161q0 34 -46 132
q-48 105 -102 180q-65 90 -107 90q-25 0 -44 -24t-19 -64v-362q33 -5 111 -25q63 -16 93 -16q66 0 90 20t24 69z" />
    <glyph glyph-name="u1D514" unicode="&#x1d514;" horiz-adv-x="748" 
d="M707 327q0 -93 -42 -169.5t-113 -121.5q27 -30 46 -65q29 -53 52 -53q6 0 12 3l8 -13l-78 -69q-60 8 -89 57l-38 63q-16 23 -28 32q-24 -4 -55 -4q-124 0 -223 86q-117 100 -117 266q0 160 102 254q92 86 227 86q24 0 37 -3v-163l159 136q75 -59 107 -128q33 -74 33 -194
zM594 270q0 82 -32.5 157.5t-73.5 75.5q-23 0 -64 -31l-16 -12v-198q0 -24 -19 -41l-133 -118q34 -10 58 -11q26 -2 56 0q38 3 50 3q47 0 83 -21q42 36 67 93q24 54 24 103zM280 205v413q-42 -10 -73 -54q-45 -64 -45 -180q0 -163 59 -255l50 47q9 8 9 29z" />
    <glyph glyph-name="u1D516" unicode="&#x1d516;" horiz-adv-x="653" 
d="M612 277q0 -78 -83 -161l-116 -116h-354l-11 33l82 88h234q179 0 177 91q-1 28 -34 47q-28 15 -56 15q-29 0 -96 -1q-76 -1 -114 -1q-56 0 -98.5 41.5t-42.5 88.5q0 54 34 105q27 39 114 127q45 45 66 45q15 0 105 -25t104 -25q27 0 44 11l15 -15l-96 -110q-6 -7 -32 -7
q-11 0 -102.5 26.5t-107.5 26.5t-44 -26t-28 -49q0 -86 111 -86h178q56 0 97 -25q54 -32 54 -98z" />
    <glyph glyph-name="u1D517" unicode="&#x1d517;" horiz-adv-x="687" 
d="M646 145l-87 -139q-98 -19 -157 -19q-183 0 -281 109q-75 84 -75 185q0 149 151 269h-29q-19 0 -30.5 -6.5t-35.5 -31.5l-36 20l125 139h428l12 -32l-82 -88h-279q-83 -76 -98 -97q-32 -45 -32 -120q0 -115 79 -174l50 35q23 16 23 56v177q0 31 9 44.5t34 24.5l115 52
v-30q-31 -13 -31 -40v-210q0 -29 -28 -48l-129 -86q54 -24 129 -24q76 0 118 17q29 11 76 48z" />
    <glyph glyph-name="u1D519" unicode="&#x1d519;" horiz-adv-x="719" 
d="M678 405q0 -66 -43 -137q-38 -62 -99 -114l-200 -169l-288 115v33q57 42 73 76q14 29 14 97v203q0 55 -47 55q-12 0 -30 -10l-14 32l104 93q114 3 126 -146l172 146q87 0 155 -69q77 -78 77 -205zM546 366q0 81 -61 136q-49 45 -94 45q-33 0 -49 -12l-66 -49l1 -163
q0 -26 -24 -48l-84 -77l234 -101q85 75 112 124q31 55 31 145z" />
    <glyph glyph-name="u1D52D" unicode="&#x1d52d;" horiz-adv-x="470" 
d="M406 89q-80 -38 -139 -101q-31 23 -79 42q0 -81 9 -109q9 -31 45 -55l-6 -13q-86 29 -112 70q-27 -31 -65 -42l-6 10q25 25 33 51q5 18 5 59v56q-34 6 -63 6v38q30 8 63 12v223q0 80 -32 80q-7 0 -20 -12l-11 16l96 73q39 -29 51 -48.5t13 -63.5l123 112l43 -35
q34 -28 43 -49t9 -68v-252zM310 76v269q0 25 -12 35l-45 37l-65 -60v-245q73 -12 122 -36z" />
    <glyph glyph-name="uni2C88" unicode="&#x2c88;" horiz-adv-x="758" 
d="M718 232q-12 -104 -89 -170q-88 -75 -240 -75q-141 0 -239 85q-109 93 -109 250q0 190 129 285q98 72 236 72q103 0 201 -66q102 -69 111 -156h-147q-8 56 -50 111q-49 66 -107 66q-71 0 -123 -58q-61 -68 -68 -197h328q81 0 126 -19q41 -18 41 -45q0 -35 -27 -35h-50
q-15 0 -52 18q-49 24 -79 33q-57 18 -119 18h-169v-1q0 -159 54 -242q48 -74 126 -74q72 0 119 68q36 52 50 131z" />
    <glyph glyph-name="uni2070" unicode="&#x2070;" 
d="M392 552q0 -106 -45 -172q-48 -71 -136 -71t-137 71q-44 66 -44 172q0 107 44 172q49 72 137 72t136 -72q45 -66 45 -172zM313 552q0 208 -102 208t-102 -208t102 -208t102 208z" />
    <glyph glyph-name="onesuperior" unicode="&#xb9;" 
d="M334 317h-253v32l76 3q16 1 16 15v369l-116 -19v32l162 47h29v-429q0 -14 16 -15l70 -3v-32z" />
    <glyph glyph-name="twosuperior" unicode="&#xb2;" 
d="M387 317h-352v47q154 120 188 153q74 73 74 138q0 48 -32 77q-29 26 -75 26q-22 0 -43 -8l-20 -8v-77q-15 -12 -36 -12q-45 0 -45 41q0 43 49 72.5t116 29.5q73 0 120 -37t47 -97q0 -65 -81 -143q-40 -38 -182 -143h222l13 60h37v-119z" />
    <glyph glyph-name="threesuperior" unicode="&#xb3;" 
d="M387 451q0 -63 -57 -102.5t-140 -39.5q-70 0 -115 27q-40 24 -40 53q0 37 44 37q20 0 26 -4l22 -63q30 -15 66 -15q50 0 83.5 32t33.5 75q0 46 -38 70q-30 18 -75 18q-24 0 -45 -3v44q15 -1 19 -1q51 0 85.5 22.5t34.5 66.5q0 42 -30 67q-27 22 -68 22q-37 0 -68 -17v-70
q-27 -9 -33 -9q-44 0 -44 39q0 40 49 68t117 28q67 0 110.5 -32.5t43.5 -86.5q0 -82 -116 -112q54 -3 91 -29q44 -32 44 -85z" />
    <glyph glyph-name="uni2074" unicode="&#x2074;" 
d="M392 457h-64v-148h-70v148h-228v48l246 291h52v-292h64v-47zM258 504v202l-169 -202h169z" />
    <glyph glyph-name="uni2075" unicode="&#x2075;" 
d="M388 469q0 -73 -54 -116q-57 -44 -158 -44q-56 0 -99 25.5t-43 54.5q0 39 47 39q11 0 20 -3l29 -64q20 -18 57 -18q56 0 92 36q32 32 32 73q0 57 -37 88q-34 28 -91 28q-45 0 -119 -24v243h289v-59h-236v-133q57 18 101 18q79 0 124.5 -38.5t45.5 -105.5z" />
    <glyph glyph-name="uni2076" unicode="&#x2076;" 
d="M392 478q0 -76 -52 -122.5t-130 -46.5q-180 0 -180 209q0 128 79 203t221 75v-44l-26 1q-73 3 -127 -44.5t-66 -129.5q53 44 125 44q70 0 113 -41t43 -104zM316 468q0 52 -28 81t-78 29q-53 0 -101 -35q-2 -15 -2 -39q0 -159 103 -159q52 0 79 34t27 89z" />
    <glyph glyph-name="uni2077" unicode="&#x2077;" 
d="M391 748l-246 -416v-23h-80l248 419h-231l-12 -64h-39v123h360v-39z" />
    <glyph glyph-name="uni2078" unicode="&#x2078;" 
d="M391 445q0 -60 -51 -98t-129 -38q-83 0 -132 37t-49 98q0 79 107 116q-87 34 -87 107q0 59 44 94t117 35q68 0 114 -33.5t46 -84.5q0 -72 -91 -113q111 -39 111 -120zM302 671q0 42 -26 65.5t-65 23.5q-38 0 -62 -22.5t-24 -54.5q0 -64 123 -105q54 38 54 93zM316 434
q0 39 -39 64q-23 15 -110 47q-67 -34 -67 -96q0 -46 29 -74t82 -28q47 0 76 25.5t29 61.5z" />
    <glyph glyph-name="uni2079" unicode="&#x2079;" 
d="M392 586q0 -127 -79.5 -202t-220.5 -75v43h25q74 0 128.5 46t65.5 127q-55 -44 -125 -44t-113 41t-43 104q0 75 52 122.5t130 47.5q180 0 180 -210zM314 600q0 159 -102 159q-52 0 -79 -34t-27 -89q0 -52 28 -80.5t78 -28.5q51 0 101 35q1 14 1 38z" />
    <glyph glyph-name="uni1D5D" unicode="&#x1d5d;" horiz-adv-x="364" 
d="M344 459q0 -65 -41 -107.5t-96 -42.5q-69 0 -104 53l11 6q34 -42 80 -42q84 0 84 129q0 65 -39 108q-29 32 -50 32q-4 0 -19 -6t-23 -6q-26 0 -26 20q0 19 25 19q7 0 21.5 -4.5t17.5 -4.5q17 0 38 19q31 28 31 78q0 45 -30 72q-25 23 -56 23q-41 0 -65 -36t-24 -98v-487
h-60v415q0 97 41 158q44 65 122 65q57 0 92 -32q32 -28 32 -67q0 -81 -102 -119q55 -6 95 -42q45 -42 45 -103z" />
    <glyph glyph-name="uni1D60" unicode="&#x1d60;" horiz-adv-x="483" 
d="M453 492q0 -78 -52.5 -126.5t-137.5 -55.5l3 -84q2 -42 -31 -42t-31 42l4 85q-83 8 -133 56q-53 49 -53 125q0 80 56 127q54 44 143 48l4 117q1 21 12 21q10 0 11 -21l4 -117q91 -3 144 -46q57 -46 57 -129zM388 492q0 71 -37 111t-99 45l11 -320q57 9 91 52.5t34 111.5z
M220 648q-62 -4 -98 -43q-39 -41 -39 -113q0 -68 34.5 -111.5t90.5 -52.5z" />
    <glyph glyph-name="glyph126" horiz-adv-x="383" 
d="M362 408q0 -46 -15.5 -72.5t-37.5 -26.5q-49 0 -72 75l-54 177l-99 -244h-67l138 339l-20 65q-17 54 -54 54q-18 0 -31 -13t-13 -28h-15q0 41 19 66q18 22 42 22q27 0 42.5 -16t28.5 -59l102 -337q15 -48 55 -48q15 0 25.5 14.5t10.5 31.5h15z" />
    <glyph glyph-name="glyph127" horiz-adv-x="419" 
d="M405 410q0 -42 -16 -70q-17 -31 -48 -31q-75 0 -78 124q-10 -51 -36 -84q-30 -40 -72 -40q-67 0 -91 71q0 -51 20 -107.5t20 -72.5q0 -24 -26 -24q-32 0 -32 78v407h60v-251q0 -28 16.5 -52t38.5 -24q41 0 71 62q24 51 24 96v169h60v-258q0 -69 37 -69q14 0 26.5 23
t12.5 53h13z" />
    <glyph glyph-name="glyph128" horiz-adv-x="446" 
d="M416 678q0 -61 -56 -61h-47v-207q0 -73 37 -73q19 0 33.5 21.5t14.5 62.5h14q0 -54 -22 -83t-57 -29q-80 0 -80 89v219h-113v-182q0 -126 -78 -126q-52 0 -52 96h13q0 -45 32 -45q67 0 67 145v112h-31q-50 0 -63 -39h-14q0 29 19 53q24 30 65 30h268q29 0 35 17h15z" />
    <glyph glyph-name="glyph129" horiz-adv-x="401" 
d="M382 488q0 -72 -51 -125.5t-125 -53.5q-94 0 -142 79q0 -75 17 -119.5t17 -59.5q0 -33 -33 -33q-19 0 -26 9q-9 14 -9 69v236q0 72 51.5 125.5t125.5 53.5t124.5 -53.5t50.5 -127.5zM321 476q0 67 -32 119q-36 57 -92 57q-54 0 -82 -45q-22 -37 -22 -95q0 -72 29 -124
q34 -61 94 -61q52 0 80 47q25 41 25 102z" />
    <glyph glyph-name="uni2E00" unicode="&#x2e00;" horiz-adv-x="292" 
d="M255 713q0 -22 -32 -22h-142v-262q0 -31 -21 -31q-22 0 -22 31v274q0 13 10 22t22 9h153q32 0 32 -21z" />
    <glyph glyph-name="uni2E02" unicode="&#x2e02;" horiz-adv-x="242" 
d="M196 716q0 -11 -9 -19l-105 -97v-171q0 -31 -22 -31t-22 31v177q0 14 10 23l104 98q11 10 22 10q22 0 22 -21z" />
    <glyph glyph-name="uni2E03" unicode="&#x2e03;" horiz-adv-x="242" 
d="M204 429q0 -32 -22 -32q-21 0 -21 32v175l-102 93q-12 11 -12 23q0 19 19 19q11 0 24 -12l104 -98q10 -9 10 -23v-177z" />
    <glyph glyph-name="uni2E06" unicode="&#x2e06;" horiz-adv-x="433" 
d="M396 713q0 -21 -31 -21h-128v-263q0 -31 -21 -31t-21 31v263h-127q-32 0 -32 21t32 21h297q31 0 31 -21z" />
    <glyph glyph-name="degree" unicode="&#xb0;" horiz-adv-x="413" 
d="M377 566q0 -70 -49.5 -120t-120.5 -50q-70 0 -120 50t-50 120q0 71 50 121t120 50t120 -50t50 -121zM334 566q0 53 -37.5 90.5t-89.5 37.5q-56 0 -91.5 -36t-35.5 -92q0 -53 36.5 -89.5t90.5 -36.5q56 0 91.5 35.5t35.5 90.5z" />
    <glyph glyph-name="uni2E0B" unicode="&#x2e0b;" horiz-adv-x="394" 
d="M356 448q0 -12 -10 -21.5t-22 -9.5h-254q-12 0 -22 9.5t-10 21.5v255q0 13 9.5 22t22.5 9h254q13 0 22.5 -9t9.5 -22v-255zM313 461v230h-231v-230h231z" />
    <glyph glyph-name="uni2E0C" unicode="&#x2e0c;" 
d="M387 456q0 -20 -20 -20q-12 0 -23 10l-284 248q-14 12 -14 25q0 19 20 19q12 0 23 -10l285 -248q13 -11 13 -24z" />
    <glyph glyph-name="uni2E09" unicode="&#x2e09;" horiz-adv-x="367" 
d="M330 702q0 -16 -20 -16q-8 0 -25.5 5.5t-26.5 5.5q-28 0 -48 -17t-20 -45q0 -24 22.5 -70.5t22.5 -74.5q0 -42 -28.5 -69t-70.5 -27q-23 0 -58 14q-41 17 -41 35q0 20 26 20q8 0 35 -13t46 -13q22 0 35 17t13 40q0 16 -22.5 60.5t-22.5 75.5q0 47 35 78t83 31q20 0 40 -8
q25 -11 25 -29z" />
    <glyph glyph-name="uni2E0A" unicode="&#x2e0a;" horiz-adv-x="367" 
d="M330 443q0 -13 -18 -23q-47 -26 -81 -26q-43 0 -71 27t-28 69q0 28 22.5 74.5t22.5 70.5q0 28 -20.5 45t-47.5 17q-8 0 -27 -5.5t-25 -5.5q-20 0 -20 16t22 27q19 10 43 10q49 0 83.5 -31t34.5 -78q0 -32 -22.5 -76t-22.5 -60q0 -26 14.5 -41.5t33.5 -15.5q21 0 47.5 13
t33.5 13q26 0 26 -20z" />
    <glyph glyph-name="uni0307" unicode="&#x307;" horiz-adv-x="0" 
d="M-34 566q0 -15 -10.5 -25.5t-26.5 -10.5q-15 0 -26 10.5t-11 25.5q0 16 11 26.5t26 10.5q37 0 37 -37z" />
    <glyph glyph-name="uni02F8" unicode="&#x2f8;" horiz-adv-x="220" 
d="M161 608q0 -19 -15 -33t-36 -14q-20 0 -34.5 14t-14.5 33q0 20 14 33.5t35 13.5t36 -14t15 -33zM161 359q0 -19 -15 -33t-36 -14q-20 0 -34.5 14t-14.5 33q0 20 14 33.5t35 13.5q22 0 36.5 -13.5t14.5 -33.5z" />
    <glyph glyph-name="uni2225" unicode="&#x2225;" horiz-adv-x="500" 
d="M363 -236h-69v1000h69v-1000zM207 -236h-69v1000h69v-1000z" />
    <glyph glyph-name="uni2AFD" unicode="&#x2afd;" horiz-adv-x="490" 
d="M457 671l-208 -764h-58l207 764h59zM339 671l-207 -764h-58l207 764h58z" />
    <glyph glyph-name="uni27E6" unicode="&#x27e6;" horiz-adv-x="597" 
d="M554 -132h-415v840h415v-45h-157v-749h157v-46zM310 -86v749h-84v-749h84z" />
    <glyph glyph-name="uni27E7" unicode="&#x27e7;" horiz-adv-x="597" 
d="M458 -132h-414v46h157v749h-157v45h414v-840zM372 -86v749h-84v-749h84z" />
    <glyph glyph-name="ae" unicode="&#xe6;" horiz-adv-x="736" 
d="M695 50q-80 -58 -166 -58q-108 0 -182 72q-94 -72 -176 -72q-61 0 -95 35t-34 92q0 75 65 113q51 30 218 73v41q0 101 -89 101q-30 0 -63 -13v-87h-70q-38 0 -38 29q0 57 64 89q55 28 132 28q93 0 133 -58q49 58 135 58q84 0 128 -61q38 -53 38 -141q0 -10 -2 -35h-280
v-133q64 -64 148 -64q73 0 134 51v-60zM596 299v30q0 49 -20 82q-23 36 -65 36q-51 0 -77 -47q-21 -39 -21 -101h183zM325 94v173q-108 -29 -147.5 -58.5t-39.5 -75.5q0 -81 76 -81q44 0 111 42z" />
    <glyph glyph-name="ccedilla" unicode="&#xe7;" horiz-adv-x="470" 
d="M435 41q-83 -45 -157 -49v-55q28 4 23 4q73 0 73 -71q0 -45 -32 -70t-84 -25q-32 0 -75 10v39q38 -8 61 -8q65 0 65 41q0 37 -48 37q-9 0 -22 -6v105q-92 9 -147 76.5t-55 168.5q0 120 73 191q66 64 168 64q68 0 111.5 -26.5t43.5 -73.5q0 -28 -17.5 -43t-41.5 -15
q-26 0 -50 16v88q-21 12 -42 12q-66 0 -104.5 -55.5t-38.5 -144.5q0 -87 42 -140q44 -56 124 -56q64 0 130 43v-57z" />
    <glyph glyph-name="udieresis" unicode="&#xfc;" horiz-adv-x="569" 
d="M452 641q0 -23 -16.5 -39.5t-38.5 -16.5t-38 16.5t-16 39.5q0 21 16.5 38t37.5 17q23 0 39 -16t16 -39zM245 641q0 -22 -16.5 -39t-39.5 -17q-22 0 -37.5 16.5t-15.5 38.5t16 39t38 17q23 0 39 -16t16 -39zM548 0h-158v57q-85 -65 -161 -65q-138 0 -138 158v271h-70v34
l123 38h41v-324q0 -109 96 -109q57 0 109 26v335h-70v34l122 38h40v-429q0 -21 22 -22l44 -3v-39z" />
    <glyph glyph-name="uni2113" unicode="&#x2113;" horiz-adv-x="417" 
d="M187 205q117 160 117 318q0 81 -9 110q-8 24 -28 24q-33 0 -58 -93q-26 -100 -26 -256q0 -45 4 -103zM377 146q-44 -101 -78 -136q-26 -26 -63 -26q-73 0 -106 84q-38 -35 -79 -57l-26 46q47 24 90 66q-7 36 -7 90q0 243 62 389q51 119 110 119q47 0 65 -25
q23 -32 23 -125q0 -113 -50 -234q-47 -111 -123 -202q16 -85 50 -85q50 0 94 119z" />
    <glyph glyph-name="u1D40C" unicode="&#x1d40c;" horiz-adv-x="935" 
d="M928 0h-320v24q80 0 80 69v443l-228 -544h-26l-243 477v-377q0 -29 34 -49q31 -19 71 -19v-24h-267v24q39 0 71 19.5t32 48.5v468q0 32 -26 58q-30 29 -77 29v25h230l236 -462l193 462h228v-25q-35 0 -50 -12q-18 -15 -18 -54v-488q0 -69 80 -69v-24z" />
    <glyph glyph-name="brokenbar" unicode="&#xa6;" horiz-adv-x="500" 
d="M285 350h-69v414h69v-414zM285 -236h-69v414h69v-414z" />
    <glyph glyph-name="paragraph" unicode="&#xb6;" horiz-adv-x="486" 
d="M459 635l-62 -10v-704h-49v709h-76v-349q-119 0 -176 39q-69 46 -69 155q0 106 61 153q56 43 173 43h198v-36z" />
    <glyph glyph-name="periodcentered" unicode="&#xb7;" horiz-adv-x="372" 
d="M323 365q0 -57 -40 -96.5t-97 -39.5t-97 39.5t-40 96.5t40 97t97 40t97 -40t40 -97z" />
    <glyph glyph-name="aleph" unicode="&#x2135;" horiz-adv-x="596" 
d="M558 104q0 -47 -32 -87q-26 -33 -44 -33q-9 0 -9 14q0 2 6.5 12t6.5 17q0 24 -32 60l-50 50l-245 245q-27 -40 -27 -72q0 -42 60 -114t60 -115q0 -35 -26.5 -58t-64.5 -23h-130l5 25q64 8 64 43q0 17 -29 71.5t-29 87.5q0 77 93 179l-24 24q-44 44 -59 73q-18 33 -18 82
q0 47 31 87q26 33 44 33q9 0 9 -14q0 -2 -6.5 -11.5t-6.5 -16.5q0 -25 32 -61l50 -49l146 -146l70 88q-36 27 -48 51q-9 17 -9 45q0 47 35 84q28 30 47 30q9 0 9 -9q0 -2 -2.5 -4.5t-2.5 -9.5q0 -24 53 -62q63 -46 63 -116q0 -49 -21 -75q-17 -21 -37 -21q-10 0 -19 17
q-15 27 -41 49l-73 -91l123 -124q44 -44 59 -73q19 -34 19 -82z" />
    <glyph glyph-name="uni2003" unicode="&#x2003;" horiz-adv-x="1000" 
 />
    <glyph glyph-name="glyph155" horiz-adv-x="368" 
d="M368 790l-320 -535h-48l320 535h48z" />
    <glyph glyph-name="uni0394" unicode="&#x394;" horiz-adv-x="660" 
d="M640 0h-640l315 684h9zM512 35l-223 484l-229 -484h452z" />
    <glyph glyph-name="Theta" unicode="&#x398;" horiz-adv-x="738" 
d="M726 336q0 -144 -102 -246t-246 -102t-246 102t-102 246t102 246t246 102t246 -102t102 -246zM616 336q0 122 -64 214q-70 101 -179 101q-105 0 -172 -102q-61 -92 -61 -213q0 -128 62 -216q67 -96 179 -96q102 0 172 106q63 95 63 206zM522 237h-17q0 30 -20 47
q-16 14 -35 14h-142q-21 0 -36 -14q-19 -17 -19 -47h-17v194h17q0 -30 19 -47q15 -14 36 -14h142q19 0 35 14q20 17 20 47h17v-194z" />
    <glyph glyph-name="Xi" unicode="&#x39e;" horiz-adv-x="628" 
d="M571 497h-15q0 87 -77 87h-326q-77 0 -77 -87h-15v175h510v-175zM473 233h-17q0 30 -20 47q-16 14 -35 14h-165q-21 0 -36 -14q-19 -17 -19 -47h-17v210h17q0 -30 19 -47q15 -14 36 -14h165q19 0 35 14q20 17 20 47h17v-210zM571 0h-510v175h15q0 -87 77 -87h326
q77 0 77 87h15v-175z" />
    <glyph glyph-name="Pi" unicode="&#x3a0;" horiz-adv-x="769" 
d="M700 0h-300v15q100 0 100 63v503q0 61 -95 61h-108q-95 0 -95 -61v-503q0 -63 100 -63v-15h-300v15q100 0 100 63v503q0 76 -100 76v15h698v-15q-100 0 -100 -76v-503q0 -63 100 -63v-15z" />
    <glyph glyph-name="Psi" unicode="&#x3a8;" horiz-adv-x="863" 
d="M844 654q-47 0 -62 -24q-21 -35 -21 -154q0 -136 -41 -188q-61 -77 -248 -84v-121q0 -31 34 -50q30 -18 66 -18v-15h-300v15q36 0 66 18q34 19 34 50v121q-187 7 -248 84q-41 52 -41 188q0 119 -21 154q-15 24 -62 24v14q101 0 130 -23q45 -35 45 -160q0 -149 40 -198
q38 -45 157 -49v343q0 76 -90 76v15h280v-15q-90 0 -90 -76v-343q119 4 157 49q40 49 40 198q0 125 45 160q29 23 130 23v-14z" />
    <glyph glyph-name="glyph161" horiz-adv-x="365" 
d="M313 670q0 -93 -143 -152v-78h-42v102q109 35 109 123q0 96 -107 96l-31 -71q-11 -1 -13 -1q-49 0 -49 38q0 27 29 47q34 22 91 22q67 0 111.5 -35t44.5 -91zM197 355q0 -18 -13.5 -30.5t-33.5 -12.5q-19 0 -32.5 13t-13.5 30q0 18 13.5 30.5t32.5 12.5t33 -13t14 -30z
" />
    <glyph glyph-name="uni1D2C" unicode="&#x1d2c;" horiz-adv-x="498" 
d="M498 317h-179v30l44 4q3 0 6 4.5t2 7.5l-52 128h-174l-49 -126q-2 -4 2 -9t9 -5l44 -4v-30h-151v30l44 9l174 437h57l174 -427q3 -8 5 -10t10 -3l34 -6v-30zM305 525l-74 189l-72 -189h146z" />
    <glyph glyph-name="uni1D2E" unicode="&#x1d2e;" horiz-adv-x="457" 
d="M424 456q0 -76 -65 -112q-50 -27 -125 -27h-210v30l40 3q15 1 15 16v373q0 14 -15 15l-40 3v30h201q169 0 169 -113q0 -82 -108 -107q57 0 94 -24q44 -30 44 -87zM313 669q0 86 -116 86q-9 0 -25 -1t-17 -1v-177q19 -1 27 -1q131 0 131 94zM343 450q0 93 -121 93
q-15 0 -41.5 -2t-25.5 -2v-185q33 -2 46 -2q77 0 109.5 23.5t32.5 74.5z" />
    <glyph glyph-name="glyph164" horiz-adv-x="475" 
d="M443 333q-96 -24 -150 -24q-121 0 -194 74q-68 69 -68 170q0 109 72.5 176t190.5 67q59 0 149 -25v-110h-45l-11 64q-2 11 -13 16q-34 15 -76 15q-80 0 -128 -50q-52 -53 -52 -151t50.5 -153t139.5 -55q50 0 60 10q12 4 14 14l18 76h43v-114z" />
    <glyph glyph-name="uni1D30" unicode="&#x1d30;" horiz-adv-x="524" 
d="M493 553q0 -101 -59 -164q-69 -72 -201 -72h-209v30l40 3q16 1 16 16v373q0 14 -16 15l-40 3v30h194q124 0 196 -56q79 -61 79 -178zM408 552q0 202 -195 202h-58v-403l62 1q191 3 191 200z" />
    <glyph glyph-name="uni1D31" unicode="&#x1d31;" horiz-adv-x="439" 
d="M414 317h-390v30l40 3q16 1 16 16v373q0 14 -16 15l-40 3v30h365v-104h-45l-11 57q-3 14 -14 14h-164v-175h114q12 0 14 12l7 48h38v-156h-38l-7 49q-2 12 -14 12h-114v-192h191q12 0 14 13l13 69h41v-117z" />
    <glyph glyph-name="glyph167" horiz-adv-x="407" 
d="M388 676h-44l-11 64q-2 13 -13 13h-160v-182h115q12 0 14 12l7 50h37v-158h-37l-7 49q-2 12 -14 12h-115v-170q0 -15 15 -16l51 -3v-30h-197v30l40 3q16 1 16 16v373q0 14 -16 15l-46 3v30h365v-111z" />
    <glyph glyph-name="uni1D33" unicode="&#x1d33;" horiz-adv-x="524" 
d="M505 514l-38 -4q-16 0 -16 -14v-162q-83 -25 -158 -25q-120 0 -194 74q-68 68 -68 170q0 111 73.5 177t198.5 66q63 0 147 -22v-113h-45l-12 63q-2 12 -15 17q-35 15 -78 15q-83 0 -133 -52t-50 -147q0 -100 51.5 -154.5t140.5 -54.5q20 0 44 4t22 4v140q0 13 -16 14
l-50 4v30h196v-30z" />
    <glyph glyph-name="uni1D34" unicode="&#x1d34;" horiz-adv-x="557" 
d="M533 317h-189v30l43 3q16 1 16 16v180h-248v-180q0 -15 16 -16l43 -3v-30h-190v30l39 3q16 1 16 16v373q0 14 -16 15l-39 2v31h190v-31l-43 -2q-16 -1 -16 -15v-158h248v158q0 14 -16 15l-43 2v31h189v-31l-39 -2q-16 -1 -16 -15v-373q0 -15 16 -16l39 -3v-30z" />
    <glyph glyph-name="uni1D35" unicode="&#x1d35;" horiz-adv-x="248" 
d="M223 317h-198v30l45 3q15 1 15 16v373q0 14 -15 15l-45 2v31h198v-31l-46 -2q-16 -1 -16 -15v-373q0 -15 16 -16l46 -3v-30z" />
    <glyph glyph-name="uni1D36" unicode="&#x1d36;" horiz-adv-x="359" 
d="M344 757l-43 -3q-16 -1 -16 -15v-245q0 -185 -165 -185q-33 0 -101 17v120h45l16 -86q3 -15 35 -15q95 0 95 145v249q0 14 -16 15l-47 3v30h197v-30z" />
    <glyph glyph-name="uni1D37" unicode="&#x1d37;" horiz-adv-x="479" 
d="M479 317h-132v22l-139 187h-52l-1 -160q0 -15 17 -16l43 -3v-30h-191v30l40 3q15 1 15 16v373q0 14 -15 15l-40 3v30h191v-30l-43 -3q-17 -1 -17 -15l1 -184h26l164 187q2 3 0 7t-6 5l-39 3v30h159v-30l-51 -6l-153 -170l168 -230l55 -4v-30z" />
    <glyph glyph-name="uni1D38" unicode="&#x1d38;" horiz-adv-x="395" 
d="M385 317h-365v30l44 3q15 1 15 16v373q0 14 -15 15l-44 3v30h192v-30l-40 -3q-17 -1 -17 -15v-387h158q14 0 16 12l12 84h44v-131z" />
    <glyph glyph-name="uni1D39" unicode="&#x1d39;" horiz-adv-x="653" 
d="M631 317h-186v30l39 3q17 1 17 16v385l-173 -434h-37l-166 428v-379q0 -15 16 -16l43 -3v-30h-162v30l42 3q16 1 16 16v373q0 14 -16 15l-42 3v30h168v-19l136 -344l135 342v21h170v-30l-41 -3q-16 -1 -16 -15v-373q0 -15 16 -16l41 -3v-30z" />
    <glyph glyph-name="uni1D3A" unicode="&#x1d3a;" horiz-adv-x="537" 
d="M519 757l-42 -3q-16 -1 -16 -15v-422h-58l-279 392v-343q0 -15 16 -16l42 -3v-30h-162v30l43 3q16 1 16 16v373q0 14 -16 15l-44 3v30h148v-17l250 -352v321q0 14 -16 15l-42 3v30h160v-30z" />
    <glyph glyph-name="uni1D3C" unicode="&#x1d3c;" horiz-adv-x="552" 
d="M521 552q0 -104 -68 -175t-176 -71q-109 0 -177.5 70t-68.5 177q0 104 68 175t177 71t177 -71t68 -176zM434 551q0 90 -39 147q-43 61 -118 61q-78 0 -120 -61q-39 -56 -39 -145t39 -146q42 -62 118 -62q77 0 120 62q39 56 39 144z" />
    <glyph glyph-name="uni1D3E" unicode="&#x1d3e;" horiz-adv-x="424" 
d="M405 646q0 -74 -57 -115q-53 -39 -139 -38q-42 0 -53 3v-130q0 -15 16 -16l49 -3v-30h-197v30l40 3q16 1 16 16v373q0 14 -16 15l-45 3v30h179q108 0 157.5 -32.5t49.5 -108.5zM327 645q0 108 -133 108q-13 0 -38 -1v-220l17 -2t25 -2q129 -1 129 117z" />
    <glyph glyph-name="glyph178" horiz-adv-x="557" 
d="M527 552q0 -95 -55 -160t-152 -80q2 -83 104 -83q23 0 72 7v-30q-66 -12 -111 -12q-145 0 -145 117q-93 12 -149 75q-60 66 -60 166q0 105 68.5 176t178.5 71q112 0 182 -72q67 -69 67 -175zM439 552q0 89 -39 145q-43 63 -121 63t-121 -61q-39 -56 -39 -146
q0 -88 40 -144q43 -62 120 -62t121 61q39 56 39 144z" />
    <glyph glyph-name="uni1D3F" unicode="&#x1d3f;" horiz-adv-x="488" 
d="M487 318q-30 -5 -49 -5q-61 0 -85 24.5t-41 81t-33 75.5q-27 33 -89 33q-10 0 -22.5 -1t-11.5 -1v-159q0 -15 16 -16l40 -3v-30h-187v30l39 3q16 1 16 16v373q0 14 -16 15l-39 3v30h195q184 0 184 -124q0 -92 -123 -117q45 -10 65 -31q24 -26 37.5 -78t31.5 -71t72 -19
v-29zM323 660q0 93 -133 93h-34v-192h15q15 -1 22 -1q130 0 130 100z" />
    <glyph glyph-name="glyph180" horiz-adv-x="398" 
d="M365 449q0 -59 -46 -97q-53 -43 -152 -43q-75 0 -134 23v124h47l10 -79q1 -11 13 -16q-4 0 21.5 -6.5t53.5 -6.5q50 0 80.5 21t30.5 59q0 37 -45 66q-17 11 -87 41q-58 25 -81 47q-35 31 -35 79q0 62 49 98.5t125 36.5q58 0 131 -22v-109h-42l-11 67q-1 8 -12 12
q-14 14 -66 14q-45 0 -70.5 -22t-25.5 -58q0 -56 104 -93q73 -26 105 -54q37 -32 37 -82z" />
    <glyph glyph-name="uni1D40" unicode="&#x1d40;" horiz-adv-x="449" 
d="M437 675h-44l-11 66q-2 12 -12 12h-107v-387q0 -15 15 -16l48 -3v-30h-203v30l48 3q16 1 16 16v387h-108q-11 0 -13 -12l-10 -66h-44v112h425v-112z" />
    <glyph glyph-name="uni1D41" unicode="&#x1d41;" horiz-adv-x="528" 
d="M512 757l-43 -3q-16 -1 -16 -15v-266q0 -164 -193 -164q-187 0 -187 164v266q0 14 -16 15l-40 3v30h195v-30l-43 -3q-16 -1 -16 -15v-248q0 -68 25 -98q29 -37 103 -37q72 0 103 38q25 32 25 97v248q0 14 -17 15l-43 3v30h163v-30z" />
    <glyph glyph-name="uni2C7D" unicode="&#x2c7d;" horiz-adv-x="500" 
d="M492 757l-43 -8l-168 -435h-58l-171 436l-45 7v30h180v-30l-45 -3q-11 -2 -6 -13l132 -342l126 340q2 4 -1.5 9.5t-8.5 5.5l-41 3v30h149v-30z" />
    <glyph glyph-name="uni1D42" unicode="&#x1d42;" horiz-adv-x="698" 
d="M691 757l-46 -8l-115 -435h-55l-125 380l-123 -380h-54l-122 435l-44 8v30h172v-30l-45 -4q-11 -1 -7 -14l89 -312l118 360h57l121 -367l83 319q3 13 -10 14l-47 4v30h153v-30z" />
    <glyph glyph-name="glyph185" horiz-adv-x="475" 
d="M468 317h-193v30l44 5q6 0 9 4q3 5 0 10l-100 147l-116 -149q-7 -11 10 -13l45 -4v-30h-160v30l45 9l151 193l-136 200l-50 9v29h188v-29l-38 -4q-17 -2 -9 -14l92 -132l101 130q4 5 1 10q-3 4 -9 5l-39 5v29h157v-29l-48 -7l-139 -180l148 -215l46 -9v-30z" />
    <glyph glyph-name="glyph186" horiz-adv-x="469" 
d="M461 758l-40 -7l-151 -234v-151q0 -15 16 -16l48 -3v-30h-202v30l46 3q17 1 17 16v140l-144 243l-44 9v29h178v-29l-37 -4q-16 -2 -9 -14l105 -183l116 181q3 5 0 10q-3 4 -9 5l-42 5v29h152v-29z" />
    <glyph glyph-name="glyph187" horiz-adv-x="440" 
d="M406 317h-372v31l279 404h-195q-11 0 -13 -12l-11 -65h-45v112h354v-32l-280 -402h214q10 0 12 13l13 81h44v-130z" />
    <glyph glyph-name="glyph188" horiz-adv-x="320" 
d="M287 225h-183v588h183v-31h-117v-525h117v-32z" />
    <glyph glyph-name="uni207A" unicode="&#x207a;" horiz-adv-x="625" 
d="M535 506h-201v-189h-43v189h-202v40h202v187h43v-187h201v-40z" />
    <glyph glyph-name="glyph190" horiz-adv-x="320" 
d="M218 225h-185v32h118v525h-118v31h185v-588z" />
    <glyph glyph-name="glyph191" horiz-adv-x="210" 
d="M156 359q0 -19 -15 -33t-36 -14t-35.5 13.5t-14.5 33.5t14.5 33.5t35.5 13.5t36 -14t15 -33z" />
    <glyph glyph-name="glyph192" horiz-adv-x="211" 
d="M158 324q0 -51 -38.5 -86t-91.5 -40v26q83 17 82 98h-47q-14 14 -14 33q0 18 13.5 29.5t33.5 11.5q62 0 62 -72z" />
    <glyph glyph-name="glyph193" horiz-adv-x="375" 
d="M335 716l-34 -39l-96 -6l-4 10l81 50zM219 776l-26 -88h-11l-25 88l30 42zM278 553l-52 18l-34 84l9 7l76 -57zM174 681l-3 -10l-97 6l-34 39l53 15zM183 655l-34 -84l-52 -18l1 52l76 57z" />
    <glyph glyph-name="uni1D43" unicode="&#x1d43;" horiz-adv-x="384" 
d="M375 317h-112l-10 42q-70 -47 -124 -47q-42 0 -70 24.5t-28 67.5t37 68q48 31 185 59v30q0 69 -68 69q-30 0 -54 -9v-61h-54q-28 0 -28 21q0 40 50 62q43 20 106 20q118 0 118 -105v-196q0 -14 16 -15l36 -2v-28zM253 383v121q-92 -21 -124 -46q-23 -19 -23 -50
q0 -22 15 -38.5t41 -16.5q37 0 91 30z" />
    <glyph glyph-name="uni1D47" unicode="&#x1d47;" horiz-adv-x="413" 
d="M387 502q0 -84 -51 -132q-56 -53 -164 -53h-108v466h-57v23l97 27h30v-196q67 26 104 26q70 0 111 -48q38 -45 38 -113zM311 488q0 133 -115 133q-32 0 -62 -10v-260h14q15 -1 23 -1q140 0 140 138z" />
    <glyph glyph-name="uni1D9C" unicode="&#x1d9c;" horiz-adv-x="353" 
d="M326 346q-66 -34 -126 -34q-78 0 -125 48t-47 124q0 84 54 133q50 46 126 46q51 0 84 -18.5t33 -51.5q0 -41 -44 -41q-18 0 -38 11v62q-16 8 -31 8q-49 0 -78.5 -39t-29.5 -101q0 -61 32.5 -99t92.5 -38q49 0 97 30v-40z" />
    <glyph glyph-name="uni1D48" unicode="&#x1d48;" 
d="M406 317h-118v38q-60 -43 -116 -43q-70 0 -110 53q-34 46 -34 112q0 77 47 129q53 57 144 57q37 0 69 -8v128h-57v23l97 27h31v-471q0 -14 15 -15l32 -2v-28zM288 381v238q-32 10 -64 10q-56 0 -89 -38t-33 -102q0 -58 29 -94t80 -36q37 0 77 22z" />
    <glyph glyph-name="uni1D49" unicode="&#x1d49;" horiz-adv-x="371" 
d="M344 352q-70 -40 -142 -40q-74 0 -121 42q-53 46 -53 128t49.5 131.5t126.5 49.5q68 0 104 -39.5t36 -103.5v-20h-244q0 -62 27 -99q32 -46 99 -46q53 0 118 40v-43zM269 532v15q0 82 -72 82q-38 0 -64 -26.5t-29 -70.5h165z" />
    <glyph glyph-name="uni1DA0" unicode="&#x1da0;" horiz-adv-x="245" 
d="M292 796q0 -24 -35 -38q-2 2 -34.5 23.5t-34.5 22.5q-41 -19 -43 -105l-1 -53h93v-35h-93v-249q0 -14 16 -15l44 -2v-28h-182v28l37 2q15 1 15 15v249h-48v24l48 12q0 67 26 114q42 77 127 77q65 0 65 -42z" />
    <glyph glyph-name="uni1D4D" unicode="&#x1d4d;" horiz-adv-x="398" 
d="M385 608h-75q20 -31 20 -63q0 -54 -48 -84.5t-114 -26.5q-14 -22 -6 -47q8 0 43.5 -4.5t39.5 -7.5q120 -17 120 -86q0 -50 -57 -86.5t-138 -36.5q-67 0 -104 24t-37 67q0 71 80 84q-8 24 -8 32q0 29 38 66q-40 9 -65 36q-28 29 -28 69q0 55 41.5 87t109.5 32q36 0 86 -21
h102v-34zM259 549q0 35 -19 60t-51 25t-51.5 -23t-19.5 -63q0 -36 18.5 -60.5t52.5 -24.5q33 0 51.5 24.5t18.5 61.5zM301 271q0 22 -14 33t-52 18q-3 3 -81 14q-57 -19 -57 -65q0 -29 24 -49q27 -24 74 -24q50 0 80 24q26 21 26 49z" />
    <glyph glyph-name="uni02B0" unicode="&#x2b0;" horiz-adv-x="429" 
d="M416 317h-167v28l31 2q16 1 16 15v181q0 69 -74 69q-41 0 -81 -20v-230q0 -14 15 -15l32 -2v-28h-169v28l36 2q16 1 16 15v421h-57v23l96 27h31v-213q77 43 123 43t73.5 -27t27.5 -79v-195q0 -14 17 -15l34 -2v-28z" />
    <glyph glyph-name="uni2071" unicode="&#x2071;" horiz-adv-x="227" 
d="M163 770q0 -18 -13 -31t-32 -13t-33 13t-14 31q0 17 14 29.5t33 12.5t32 -12.5t13 -29.5zM202 317h-176v28l36 2q16 1 16 15v250h-52v24l92 27h30v-301q0 -14 15 -15l39 -2v-28z" />
    <glyph glyph-name="uni02B2" unicode="&#x2b2;" horiz-adv-x="231" 
d="M160 770q0 -18 -13.5 -31t-32.5 -13t-33 13t-14 31q0 17 14 29.5t33 12.5t32.5 -12.5t13.5 -29.5zM152 371q0 -97 -30 -140q-46 -66 -124 -66q-57 0 -57 39q0 30 32 41l73 -47q36 18 36 113v298h-53v24l92 26h31v-288z" />
    <glyph glyph-name="uni1D4F" unicode="&#x1d4f;" horiz-adv-x="404" 
d="M397 317h-116v25l-98 134h-42v-114q0 -14 16 -15l32 -2v-28h-170v28l37 2q15 1 15 15v421h-57v23l96 27h31v-337h15l110 117q3 3 1 8q-2 4 -7 4l-30 3v27h145v-27l-48 -5l-99 -99l129 -175l40 -4v-28z" />
    <glyph glyph-name="uni02E1" unicode="&#x2e1;" horiz-adv-x="223" 
d="M203 317h-183v28l40 2q17 1 17 14v422h-58v23l96 27h31v-472q0 -13 16 -14l41 -2v-28z" />
    <glyph glyph-name="uni1D50" unicode="&#x1d50;" horiz-adv-x="641" 
d="M628 317h-169v28l31 2q15 1 15 15v179q0 71 -66 71q-36 0 -80 -20v-230q0 -14 16 -15l31 -2v-28h-164v28l32 2q16 1 16 15v182q0 68 -67 68q-42 0 -80 -20v-230q0 -14 16 -15l31 -2v-28h-169v28l37 2q16 1 16 15v247h-52v24l90 26h31v-39q77 43 123 43q55 0 82 -48
q85 48 130 48q98 0 98 -107v-194q0 -14 16 -15l36 -2v-28z" />
    <glyph glyph-name="uni207F" unicode="&#x207f;" horiz-adv-x="433" 
d="M414 317h-166v28l32 2q16 1 16 15v182q0 68 -73 68q-40 0 -82 -20v-230q0 -14 16 -15l31 -2v-28h-169v28l37 2q15 1 15 15v247h-52v24l91 26h31v-39q82 43 124 43q100 0 100 -108v-193q0 -14 16 -15l33 -2v-28z" />
    <glyph glyph-name="uni1D52" unicode="&#x1d52;" horiz-adv-x="411" 
d="M385 486q0 -76 -49.5 -125t-130.5 -49t-129 48.5t-48 125.5t48.5 127t130.5 50t130 -50t48 -127zM307 487q0 61 -26 102.5t-75 41.5t-76 -43q-23 -39 -23 -101q0 -61 24 -100q27 -44 75 -44q49 0 76 44q25 39 25 100z" />
    <glyph glyph-name="uni1D56" unicode="&#x1d56;" horiz-adv-x="421" 
d="M395 497q0 -83 -50.5 -132.5t-139.5 -49.5q-25 0 -66 6v-111q0 -14 16 -15l45 -4v-26h-183v26l36 4q16 2 16 15v399h-52v24l92 26h30v-39q58 43 113 43q60 0 101.5 -45t41.5 -121zM320 488q0 56 -27.5 91t-77.5 35q-34 0 -76 -21v-234q32 -12 61 -12q58 0 91 43
q29 39 29 98z" />
    <glyph glyph-name="glyph210" horiz-adv-x="407" 
d="M403 165h-182v26l45 4q15 1 15 15v133q-58 -28 -105 -28q-68 0 -108 46t-40 117q0 86 57.5 135.5t159.5 49.5q56 0 106 -11v-442q0 -13 16 -15l36 -4v-26zM281 366v258q-30 7 -51 7q-60 0 -93 -38.5t-33 -103.5q0 -58 26 -93q30 -39 87 -39q35 0 64 9z" />
    <glyph glyph-name="uni02B3" unicode="&#x2b3;" horiz-adv-x="297" 
d="M290 583h-30q-16 19 -40 19q-35 0 -75 -43v-197q0 -14 15 -15l50 -2v-28h-188v27l37 3q16 1 16 15v247h-54v24l93 26h31v-66q67 70 99 70q26 0 46 -10v-70z" />
    <glyph glyph-name="uni02E2" unicode="&#x2e2;" horiz-adv-x="307" 
d="M278 419q0 -51 -38 -79.5t-105 -28.5q-64 0 -104 16v93h38l9 -60q28 -17 67 -17q30 0 48.5 15.5t18.5 37.5q0 26 -24 43q-13 10 -67 34q-85 38 -85 89q0 47 35.5 74t99.5 27q62 0 96 -16v-82h-39l-6 49q-22 16 -57 16q-61 0 -61 -47q0 -23 17.5 -37t65.5 -35
q91 -39 91 -92z" />
    <glyph glyph-name="uni1D57" unicode="&#x1d57;" horiz-adv-x="255" 
d="M250 332q-51 -17 -101 -17q-44 0 -62.5 16t-18.5 56v224h-48v23l51 22l34 67h33v-77h106v-35h-106v-187q0 -40 14 -54.5t46 -14.5q27 0 52 5v-28z" />
    <glyph glyph-name="uni1D58" unicode="&#x1d58;" horiz-adv-x="427" 
d="M411 317h-118v40q-65 -45 -121 -45q-104 0 -104 110v190h-52v24l92 27h31v-227q0 -77 72 -77q44 0 82 19v234h-53v24l91 27h30v-301q0 -14 17 -15l33 -2v-28z" />
    <glyph glyph-name="uni1D5B" unicode="&#x1d5b;" horiz-adv-x="397" 
d="M389 628l-40 -4l-131 -307h-48l-121 307l-42 4v27h166v-27l-36 -2q-16 -1 -11 -15l84 -220l92 220q6 14 -10 15l-34 2v27h131v-27z" />
    <glyph glyph-name="uni02B7" unicode="&#x2b7;" horiz-adv-x="587" 
d="M580 628l-38 -4l-103 -307h-53l-89 262l-99 -262h-53l-96 307l-42 4v27h165v-27l-35 -2q-16 -1 -12 -15l62 -219l97 263h54l86 -263l70 219q5 14 -11 15l-34 2v27h131v-27z" />
    <glyph glyph-name="uni02E3" unicode="&#x2e3;" horiz-adv-x="385" 
d="M377 317h-162v28l26 2q5 0 7 5q3 4 0 8l-65 90l-74 -90q-3 -3 -1 -8q2 -4 7 -5l37 -2v-28h-143v28l43 5l108 130l-103 142l-44 6v27h165v-27l-26 -3q-15 -2 -7 -13l58 -79l66 79q3 3 1 8t-7 5l-32 3v27h136v-27l-41 -6l-100 -120l110 -152l41 -5v-28z" />
    <glyph glyph-name="uni02B8" unicode="&#x2b8;" horiz-adv-x="398" 
d="M390 628l-39 -4l-144 -328q-33 -74 -63.5 -102.5t-66.5 -28.5q-25 0 -40 11.5t-15 28.5q0 24 25 42l70 -30q34 32 59 101l-127 306l-42 4v27h166v-27l-36 -2q-17 -1 -11 -15l87 -207l89 207q6 14 -10 15l-36 2v27h134v-27z" />
    <glyph glyph-name="uni1DBB" unicode="&#x1dbb;" horiz-adv-x="356" 
d="M329 317h-295v38l199 267h-131q-13 0 -15 -15l-8 -52h-38v100h278v-29l-206 -275h152q14 0 16 17l8 55h40v-106z" />
    <glyph glyph-name="uni207D" unicode="&#x207d;" horiz-adv-x="315" 
d="M290 218q-111 11 -165 99q-48 77 -48 202t48 201q54 88 165 99v-31q-143 -22 -143 -269q0 -248 143 -270v-31z" />
    <glyph glyph-name="uni207C" unicode="&#x207c;" horiz-adv-x="625" 
d="M532 571h-439v40h439v-40zM532 440h-439v40h439v-40z" />
    <glyph glyph-name="uni207E" unicode="&#x207e;" horiz-adv-x="315" 
d="M238 519q0 -125 -47 -202q-55 -88 -165 -99v31q142 22 142 270q0 247 -142 269v31q110 -11 165 -99q47 -76 47 -201z" />
    <glyph glyph-name="uni207B" unicode="&#x207b;" horiz-adv-x="241" 
d="M207 460h-174v52h174v-52z" />
    <glyph glyph-name="glyph224" horiz-adv-x="750" 
d="M750 462h-750v48h750v-48z" />
    <glyph glyph-name="uni212A" unicode="&#x212a;" horiz-adv-x="638" 
d="M638 0h-175v31l-186 267h-69l-1 -229q0 -20 22 -22l57 -4v-43h-254v43l53 4q21 2 21 22v533q0 20 -21 22l-53 4v43h254v-43l-57 -4q-22 -2 -22 -22l1 -262h35l218 266q4 4 0 11q-3 5 -8 6l-51 5v43h212v-43l-68 -8l-204 -244l224 -328l72 -5v-43z" />
    <glyph glyph-name="uni2001" unicode="&#x2001;" horiz-adv-x="1000" 
 />
    <glyph glyph-name="uni1FEF" unicode="&#x1fef;" horiz-adv-x="350" 
d="M232 551h-57l-152 97q-23 15 -23 40q0 45 46 45q29 0 52 -27z" />
    <glyph glyph-name="anoteleia" unicode="&#x387;" horiz-adv-x="372" 
d="M323 365q0 -57 -40 -96.5t-97 -39.5t-97 39.5t-40 96.5t40 97t97 40t97 -40t40 -97z" />
    <glyph glyph-name="uni037E" unicode="&#x37e;" horiz-adv-x="323" 
d="M229 415q0 -28 -19.5 -47.5t-47.5 -19.5t-47.5 19.5t-19.5 47.5t20 47.5t48 19.5t47 -19.5t19 -47.5zM238 10q0 -73 -51.5 -123.5t-122.5 -56.5v36q57 13 82 42q29 34 28 99h-63q-18 18 -18 46q0 26 17.5 42.5t44.5 16.5q83 0 83 -102z" />
    <glyph glyph-name="uni0308" unicode="&#x308;" horiz-adv-x="486" 
d="M417 504q0 -84 -66 -143q-41 -37 -124 -74v-111h-56v145q58 19 96 58q49 50 49 117q0 138 -143 138l-41 -102l-17 -1q-65 0 -65 54q0 39 39 67q44 31 120 31q90 0 149 -49.5t59 -129.5zM262 53q0 -25 -18 -43t-44 -18q-25 0 -43 18t-18 44t18 43.5t43 17.5q26 0 44 -18
t18 -44z" />
    <glyph glyph-name="uni0327" unicode="&#x327;" horiz-adv-x="0" 
 />
  </font>
</defs>
</svg>
